<?xml version="1.0" standalone="no"?>
<!DOCTYPE svg PUBLIC "-//W3C//DTD SVG 1.1//EN" "http://www.w3.org/Graphics/SVG/1.1/DTD/svg11.dtd" >
<svg xmlns="http://www.w3.org/2000/svg">
<metadata>Generated by IcoMoon</metadata>
<defs>
<font id="icomoon" horiz-adv-x="1024">
<font-face units-per-em="1024" ascent="960" descent="-64" />
<missing-glyph horiz-adv-x="1024" />
<glyph unicode="&#x20;" horiz-adv-x="512" d="" />
<glyph unicode="&#xe900;" glyph-name="baccarat" horiz-adv-x="1056" d="M128.324 842.669c-32.58 0-58.993-26.414-58.993-58.993v-251.023c0-259.36 209.783-469.725 468.922-470.659 259.581-0.941 472.413 214.477 472.413 474.48v247.203c0 32.58-26.413 58.993-58.995 58.993h-79.075v-159.401c0-45.057-36.525-81.579-81.574-81.579h-522.125c-45.054 0-81.577 36.522-81.577 81.579v159.401h-58.995zM229.985 842.669v-159.401c0-21.492 17.421-38.913 38.911-38.913h522.125c21.488 0 38.909 17.42 38.909 38.913v159.401h-599.945zM26.664 783.676c0 56.142 45.515 101.659 101.659 101.659h823.347c56.144 0 101.661-45.515 101.661-101.659v-247.203c0-283.203-231.606-518.173-515.232-517.146-282.635 1.021-511.435 230.451-511.435 513.325v251.023zM329.139 762.343c-10.4 0-18.83-8.431-18.83-18.831s8.431-18.831 18.83-18.831c10.4 0 18.832 8.431 18.832 18.831s-8.432 18.831-18.832 18.831zM369.302 790.084c-10.774 9.301-24.813 14.926-40.163 14.926-33.964 0-61.497-27.533-61.497-61.498s27.533-61.497 61.497-61.497c15.35 0 29.389 5.625 40.163 14.926 10.778-9.301 24.813-14.926 40.166-14.926 15.35 0 29.386 5.625 40.16 14.926 10.778-9.301 24.813-14.926 40.163-14.926 15.354 0 29.389 5.625 40.166 14.925 10.774-9.301 24.81-14.925 40.16-14.925 15.354 0 29.389 5.625 40.163 14.926 10.778-9.301 24.813-14.926 40.166-14.926 15.35 0 29.389 5.625 40.163 14.925 10.774-9.301 24.81-14.925 40.163-14.925 33.962 0 61.498 27.533 61.498 61.497s-27.536 61.498-61.498 61.498c-15.354 0-29.389-5.625-40.163-14.925-10.774 9.301-24.813 14.925-40.163 14.925s-29.389-5.625-40.163-14.926c-10.778 9.301-24.813 14.926-40.166 14.926-15.35 0-29.386-5.625-40.16-14.925-10.778 9.301-24.813 14.925-40.166 14.925-15.35 0-29.386-5.625-40.163-14.925-10.774 9.3-24.81 14.925-40.16 14.925-15.354 0-29.389-5.625-40.166-14.926zM428.298 743.512c0 10.401-8.432 18.831-18.829 18.831-10.4 0-18.832-8.431-18.832-18.831s8.432-18.831 18.832-18.831c10.397 0 18.829 8.43 18.829 18.831zM508.624 743.512c0 10.4-8.432 18.831-18.832 18.831s-18.829-8.431-18.829-18.831c0-10.4 8.429-18.831 18.829-18.831s18.832 8.431 18.832 18.831zM588.95 743.512c0 10.4-8.432 18.831-18.832 18.831-10.397 0-18.829-8.429-18.829-18.831s8.432-18.831 18.829-18.831c10.4 0 18.832 8.431 18.832 18.831zM669.277 743.512c0 10.4-8.429 18.831-18.829 18.831s-18.832-8.431-18.832-18.831c0-10.401 8.429-18.831 18.832-18.831 10.4 0 18.829 8.431 18.829 18.831zM711.946 743.512c0-10.401 8.429-18.831 18.829-18.831s18.829 8.431 18.829 18.831c0 10.4-8.429 18.831-18.829 18.831s-18.829-8.429-18.829-18.831zM347.971 542.694c0 11.782 9.549 21.334 21.331 21.334h341.389c11.782 0 21.334-9.552 21.334-21.334v-80.326c0-11.782-9.552-21.334-21.334-21.334h-341.389c-11.782 0-21.331 9.552-21.331 21.334v80.326zM390.637 521.36v-37.658h298.72v37.658h-298.72zM106.99 532.653c0 11.782 9.551 21.334 21.333 21.334h143.584c11.782 0 21.333-9.552 21.333-21.334 0-68.118 27.595-129.779 72.212-174.426 0.019-0.019 0.038-0.038 0.061-0.058 0.016-0.019 0.035-0.035 0.051-0.054 44.653-44.624 106.323-72.218 174.432-72.218 68.138 0 129.808 27.59 174.486 72.272 44.678 44.678 72.269 106.346 72.269 174.483 0 11.782 9.552 21.331 21.334 21.331h143.584c11.782 0 21.331-9.549 21.331-21.331 0-118.326-47.718-225.725-124.842-303.917-0.595-0.79-1.254-1.549-1.974-2.272-0.72-0.72-1.478-1.379-2.272-1.974-78.192-77.123-185.59-124.842-303.917-124.842-118.317 0-225.691 47.683-303.917 124.842-0.791 0.598-1.55 1.254-2.271 1.974s-1.379 1.482-1.974 2.272c-77.162 78.23-124.844 185.606-124.844 303.917zM279.613 242.099c64.179-57.574 147.469-94.253 239.053-99.21v101.117c-63.878 4.653-122.010 30.038-167.683 69.462l-71.37-71.37zM320.81 343.638l-71.366-71.37c-57.576 64.182-94.253 147.472-99.211 239.053h101.116c4.654-63.888 30.042-122.013 69.461-167.683zM561.331 244.006v-101.117c91.571 4.954 174.848 41.61 239.050 99.21l-71.366 71.37c-45.664-39.411-103.814-64.806-167.683-69.462zM759.184 343.638l71.366-71.37c57.603 64.205 94.256 147.478 99.21 239.050h-101.117c-4.656-63.869-30.051-122.016-69.459-167.68z" />
<glyph unicode="&#xe901;" glyph-name="roulette" d="M933.974 738.133c-6.614 9.6-19.629 11.947-29.014 5.333-9.6-6.613-11.946-19.627-5.334-29.013 52.054-75.733 82.774-167.468 82.774-266.453 0-259.626-210.56-470.186-470.186-470.186-259.628 0-470.401 210.56-470.401 470.186s210.56 470.187 470.187 470.187c98.986 0 190.72-30.507 266.454-82.773 9.6-6.613 22.4-4.053 29.011 5.333 6.614 9.6 4.054 22.4-5.331 29.013-82.56 56.96-182.4 90.24-290.134 90.24-282.667 0-512-229.333-512-512s229.333-512 512-512c282.666 0 512 229.334 512 512 0 107.734-33.28 207.573-90.026 290.133zM736.426 448c0 33.494-27.306 60.8-60.8 60.8-26.24 0-48.64-16.64-57.171-39.894h-20.48c-7.68 32.214-33.069 57.6-65.28 65.28v20.48c23.251 8.534 39.891 30.934 39.891 57.174 0 33.493-27.306 60.8-60.8 60.8-33.491 0-60.8-27.307-60.8-60.8 0-26.24 16.64-48.64 39.894-57.174v-20.48c-32.214-7.68-57.6-33.066-65.28-65.28h-20.48c-8.534 23.254-30.934 39.894-57.174 39.894-33.492 0-60.799-27.306-60.799-60.8s27.307-60.8 60.799-60.8c26.24 0 48.64 16.64 57.174 39.894h20.48c7.68-32.214 33.066-57.6 65.28-65.28v-20.48c-23.254-8.534-39.894-30.934-39.894-57.174 0-33.494 27.309-60.8 60.8-60.8 33.494 0 60.8 27.306 60.8 60.8 0 26.24-16.64 48.64-39.891 57.174v20.48c32.211 7.68 57.386 33.066 65.28 65.28h20.48c8.531-23.254 30.931-39.894 57.171-39.894 33.494 0 60.8 27.306 60.8 60.8zM348.16 429.014c-10.454 0-18.986 8.531-18.986 18.986s8.531 18.986 18.986 18.986c10.454 0 18.986-8.531 18.986-18.986s-8.531-18.986-18.986-18.986zM511.786 630.826c10.454 0 18.989-8.531 18.989-18.986s-8.534-18.986-18.989-18.986c-10.451 0-18.986 8.531-18.986 18.986s8.534 18.986 18.986 18.986zM511.786 265.386c-10.451 0-18.986 8.534-18.986 18.989 0 10.451 8.32 18.986 18.774 18.986 0 0 0 0 0.211 0 0 0 0 0 0.214 0 10.454 0 18.774-8.534 18.774-18.986 0-10.454-8.534-18.989-18.989-18.989zM511.786 401.28c-25.811 0-46.931 20.906-46.931 46.934 0 26.026 20.906 46.931 46.931 46.931 26.029 0 46.934-20.906 46.934-46.931 0-26.029-20.906-46.934-46.934-46.934zM656.426 447.36c0 0 0 0.426 0 0.64s0 0.426 0 0.64c0.429 10.24 8.749 18.346 18.989 18.346s18.986-8.531 18.986-18.986c0-10.454-8.534-18.986-18.986-18.986-10.454 0-18.774 8.106-18.989 18.346zM79.787 448c0-238.72 193.493-432.214 432.213-432.214s432.214 193.494 432.214 432.214c0 238.72-193.494 432.213-432.214 432.213s-432.213-193.493-432.213-432.213zM491.094 837.76v-86.187c-40.32-2.773-78.509-13.227-112.854-30.293l-43.094 74.667c47.36 24.107 100.054 38.827 155.949 41.813zM298.88 775.040l43.094-74.667c-32.641-21.973-60.588-50.133-82.561-82.559l-74.667 43.092c29.653 45.44 68.693 84.48 114.133 114.133zM163.84 624.64l74.667-43.094c-16.853-34.56-27.52-72.531-30.293-112.851h-86.187c2.987 55.891 17.707 108.8 41.813 155.946zM122.027 426.88h86.187c2.773-40.32 13.227-78.506 30.293-112.854l-74.667-43.091c-24.107 47.36-38.827 100.051-41.813 155.946zM184.747 234.666l74.667 43.094c21.973-32.64 50.133-60.586 82.561-82.56l-43.094-74.666c-45.44 29.651-84.48 68.691-114.133 114.131zM335.146 99.626l43.094 74.669c34.56-16.854 72.534-27.52 112.854-30.294v-86.186c-55.894 2.986-108.8 17.706-155.949 41.811zM512 185.174c-47.36 0-91.946 12.586-130.134 34.56-0.426 0.211-0.64 0.426-1.066 0.64-0.426 0-0.64 0.426-1.066 0.64-39.040 22.826-71.681 55.466-94.508 94.506 0 0.426-0.427 0.64-0.427 1.066 0 0.429-0.427 0.64-0.64 1.069-21.973 38.4-34.56 82.986-34.56 130.346s12.587 91.946 34.56 130.346c0 0.214 0.427 0.64 0.64 1.069 0 0.426 0.427 0.64 0.427 1.066 22.827 39.040 55.468 71.68 94.508 94.507 0.426 0 0.64 0.427 1.066 0.64s0.64 0.427 1.066 0.64c38.4 21.973 82.774 34.56 130.134 34.56s91.734-12.587 130.134-34.56c0.426-0.213 0.851-0.427 1.066-0.64 0.426-0.213 0.854-0.427 1.066-0.64 39.040-22.827 71.469-55.252 94.294-94.292 0-0.429 0.426-0.854 0.64-1.28 0.214-0.429 0.426-0.854 0.854-1.28 21.971-38.4 34.346-82.774 34.346-130.134s-12.586-91.734-34.346-130.134c-0.214-0.426-0.429-0.851-0.854-1.28-0.214-0.426-0.426-0.851-0.64-1.28-22.826-39.040-55.254-71.466-94.294-94.291-0.426 0-0.851-0.429-1.066-0.64-0.426-0.214-0.854-0.429-1.066-0.64-38.4-21.974-82.774-34.56-130.134-34.56zM532.906 58.026v86.189c40.32 2.771 78.509 13.226 112.854 30.291l43.094-74.666c-47.36-24.106-100.054-38.826-155.949-41.814zM725.12 120.746l-43.094 74.669c32.64 21.971 60.589 50.131 82.56 82.56l74.669-43.094c-29.654-45.44-68.694-84.48-114.134-114.134zM860.16 271.146l-74.666 43.094c16.851 34.56 27.52 72.534 30.291 112.854h86.189c-2.989-55.894-17.709-108.8-41.814-155.949zM901.974 468.906h-86.189c-2.771 40.32-13.226 78.509-30.291 112.854l74.666 43.094c24.106-47.36 38.826-100.054 41.814-155.949zM839.254 661.12l-74.669-43.094c-21.971 32.641-50.131 60.588-82.56 82.561l43.094 74.667c45.44-29.653 84.48-68.693 114.134-114.133zM532.906 837.973c55.894-2.987 108.8-17.707 155.949-41.813l-43.094-74.667c-34.56 16.853-72.534 27.52-112.854 30.293v86.187z" />
<glyph unicode="&#xe902;" glyph-name="lotto" horiz-adv-x="993" d="M960.062 628.311c-47.293 123.882-140.024 221.858-261.083 275.93-121.055 54.072-255.913 57.865-379.715 10.492-32.686-12.509-63.999-28.408-93.134-47.293-4.439 4.277-9.846 7.586-15.818 9.685-11.783 4.116-24.695 2.986-35.591-3.067-40.594-22.597-74.006-56.090-96.523-96.926-5.972-10.815-7.022-23.727-2.986-35.429 1.937-5.488 4.923-10.411 8.716-14.608-89.583-133.971-108.79-302.4-51.167-453.158 75.54-197.567 264.309-319.187 464.213-319.187 58.756 0 118.557 10.491 176.665 32.765 255.671 97.733 384.155 385.204 286.422 640.878v-0.081zM344.12 793.594l17.11-44.872c3.956-10.33 15.497-15.495 25.827-11.541s15.497 15.495 11.54 25.826l-17.191 44.953c82.401 26.713 170.207 24.292 250.995-6.941l-114.117-255.351c-6.861 1.533-13.883 2.343-21.147 2.343-5.405 0-10.653-0.484-15.816-1.294l-59.963 156.972c-3.956 10.33-15.497 15.495-25.827 11.541s-15.497-15.495-11.54-25.826l59.963-156.971c-10.491-6.699-19.611-15.335-26.875-25.423l-255.35 114.117c9.846 19.288 21.306 37.69 34.3 54.961l29.296-12.106c5.972-2.502 12.267-3.712 18.481-3.712 12.59 0 24.938 4.923 34.219 14.204 13.881 13.881 17.917 34.542 10.411 52.7l-11.621 27.924c20.983 15.092 43.5 28.005 67.226 38.496h0.081zM669.038 784.636c77.154-39.384 137.443-103.141 172.547-182.394l-261.322-99.831c-6.699 10.491-15.335 19.611-25.423 26.875l114.117 255.349h0.081zM594.631 465.045l261.241 99.831c26.714-82.398 24.21-170.124-6.941-250.992l-255.351 114.117c1.536 6.861 2.343 13.883 2.343 21.144 0 5.409-0.484 10.653-1.291 15.819v0.081zM325.319 113.816c-77.155 39.384-137.442 103.142-172.549 182.393l261.323 99.834c6.696-10.491 15.332-19.611 25.42-26.875l-114.114-255.351h-0.081zM399.726 433.41l-261.241-99.834c-26.713 82.401-24.292 170.127 6.941 250.992l255.349-114.117c-1.533-6.858-2.34-13.88-2.34-21.144 0-5.405 0.484-10.653 1.291-15.816v-0.081zM475.992 352.784c6.861-1.533 13.883-2.34 21.144-2.34 5.409 0 10.656 0.484 15.819 1.291l99.831-261.241c-82.398-26.714-170.124-24.294-250.992 6.941l114.117 255.348h0.081zM497.136 390.473c-32.362 0-58.672 26.311-58.672 58.672 0 32.365 26.311 58.672 58.672 58.672 32.365 0 58.675-26.307 58.675-58.672 0-32.362-26.311-58.672-58.675-58.672zM113.144 757.761c18.885 34.219 46.89 62.304 80.947 81.27 0.646 0.323 1.211 0.484 1.776 0.484 0.484 0 0.888-0.081 1.211-0.242 0.726-0.242 1.695-0.807 2.179-2.018l52.135-125.415c1.856-4.439-0.323-7.586-1.776-9.039s-4.6-3.632-9.039-1.776l-125.577 51.813c-1.291 0.565-1.856 1.534-2.098 2.179s-0.404 1.695 0.242 2.825v-0.081zM659.354 24.88c-235.011-89.823-499.32 28.328-589.145 263.339-53.427 139.782-35.026 295.945 48.988 419.586l38.819-16.060c-16.141-22.678-30.103-46.889-41.482-72.392-45.437-101.689-48.584-214.916-8.797-318.945s117.668-186.349 219.276-231.784c54.393-24.294 112.097-36.56 169.962-36.479 50.282 0 100.641 9.2 148.983 27.682 33.572 12.831 65.21 29.86 94.183 50.52 8.958 6.457 11.056 18.966 4.599 27.924-6.454 8.958-18.966 11.056-27.924 4.599-20.741-14.848-43.095-27.601-66.662-38.012l-99.831 261.244c10.491 6.696 19.611 15.332 26.875 25.42l255.348-114.117c-18.32-35.831-42.046-68.276-70.696-96.604-7.829-7.748-7.99-20.418-0.161-28.328 3.953-3.953 9.12-5.97 14.283-5.97 5.167 0 10.172 1.936 14.044 5.809 36.963 36.479 66.501 79.174 87.806 126.79 45.438 101.686 48.584 214.916 8.797 318.945s-117.667 186.347-219.276 231.784c-101.686 45.437-214.916 48.584-318.945 8.797-30.909-11.783-60.125-27.198-87.162-45.76l-16.221 38.981c27.682 18.239 57.381 33.492 88.613 45.437 113.875 43.5 237.838 40.11 349.131-9.685 111.29-49.714 196.515-139.862 240.016-253.657 89.823-235.011-28.328-499.321-263.342-589.144l-0.081 0.081z" />
<glyph unicode="&#xe903;" glyph-name="sicbo" horiz-adv-x="993" d="M913.678 916.688h-459.708c-30.419 0-55.166-24.747-55.166-55.165v-312.603h-312.601c-30.418 0-55.165-24.747-55.165-55.163v-459.708c0-30.419 24.747-55.166 55.165-55.166h459.709c30.416 0 55.163 24.747 55.163 55.166v110.328c0 10.153-8.232 18.389-18.385 18.389-10.156 0-18.389-8.235-18.389-18.389v-110.328c0-10.141-8.251-18.389-18.389-18.389h-459.709c-10.139 0-18.388 8.248-18.388 18.389v459.708c0 10.138 8.249 18.389 18.388 18.389h459.709c10.138 0 18.389-8.251 18.389-18.389v-202.271c0-10.156 8.232-18.389 18.389-18.389 10.153 0 18.385 8.232 18.385 18.389v55.163h312.602c30.419 0 55.166 24.747 55.166 55.166v459.708c0 30.418-24.747 55.165-55.166 55.165zM932.067 401.814c0-10.138-8.248-18.389-18.389-18.389h-312.602v110.331c0 30.416-24.747 55.163-55.163 55.163h-110.331v312.603c0 10.139 8.248 18.388 18.389 18.388h459.708c10.141 0 18.389-8.249 18.389-18.388v-459.708zM683.821 686.828c-30.478 0-55.163-24.672-55.163-55.162 0-30.475 24.672-55.159 55.163-55.159 30.478 0 55.163 24.669 55.163 55.159 0 30.674-24.92 55.162-55.163 55.162zM683.821 613.283c-10.156 0-18.385 8.223-18.385 18.382 0 10.156 8.226 18.385 18.385 18.385 10.125 0 18.385-8.204 18.385-18.385 0-10.156-8.226-18.382-18.385-18.382zM833.356 836.335c-30.357 0.004-55.175-24.515-55.175-55.13-0.006-30.453 24.678-55.18 55.175-55.176 30.599 0 55.128 24.802 55.128 55.174 0.003 30.492-24.616 55.13-55.128 55.132zM833.353 762.805c-10.138 0-18.398 8.245-18.398 18.398 0 10.217 8.298 18.372 18.398 18.372 10.159 0 18.373-8.203 18.373-18.374-0.003-10.082-8.142-18.396-18.373-18.396zM534.308 836.335c-30.493 0.011-55.153-24.605-55.156-55.132 0-30.354 24.517-55.176 55.132-55.176 30.462 0 55.181 24.686 55.178 55.176 0 30.582-24.784 55.121-55.153 55.132zM534.286 762.803c-10.166 0-18.364 8.245-18.373 18.377-0.009 10.182 8.211 18.392 18.37 18.392 10.060 0 18.401-8.118 18.401-18.372 0-10.13-8.245-18.398-18.398-18.398zM833.356 537.308v0c-30.456 0-55.181-24.682-55.175-55.178 0-30.596 24.799-55.128 55.172-55.128 72.099-0.003 73.083 110.307 0.003 110.307zM833.353 463.76c-10.082 0.003-18.398 8.139-18.398 18.373 0 10.138 8.248 18.398 18.398 18.398 10.166 0 18.364-8.245 18.373-18.379 0.012-10.181-8.208-18.392-18.373-18.392zM260.893 263.9c0-30.478 24.672-55.163 55.16-55.163 30.478 0 55.163 24.672 55.163 55.163 0 30.447-24.675 55.159-55.163 55.159-30.475 0-55.16-24.669-55.16-55.159zM334.438 263.9c0-10.156-8.226-18.385-18.385-18.385-10.155 0-18.383 8.226-18.383 18.385 0 10.156 8.225 18.382 18.383 18.382 10.128 0 18.385-8.204 18.385-18.382zM111.386 114.365c0-30.49 24.62-55.132 55.136-55.132 30.35 0 55.17 24.517 55.17 55.132 0.004 30.462-24.686 55.178-55.176 55.175-30.596 0.003-55.13-24.803-55.13-55.175zM184.917 114.368c0-10.215-8.301-18.373-18.398-18.373-10.16 0-18.374 8.204-18.372 18.376 0.002 10.082 8.14 18.395 18.372 18.395 10.13 0 18.398-8.245 18.398-18.398zM410.413 413.438c-0.003-30.453 24.678-55.181 55.175-55.175 30.599 0 55.132 24.799 55.132 55.172 0 30.493-24.619 55.128-55.132 55.132-30.354 0.006-55.175-24.511-55.175-55.128zM483.958 413.435c0-10.082-8.139-18.398-18.37-18.398-10.141 0-18.398 8.248-18.398 18.398 0 10.218 8.298 18.373 18.398 18.373 10.159 0 18.373-8.204 18.37-18.373zM582.69 199.543c10.153 0 18.385 8.232 18.385 18.389s-8.232 18.389-18.385 18.389c-10.156 0-18.389-8.232-18.389-18.389s8.232-18.389 18.389-18.389zM394.668 861.523c0 32.703 26.599 59.302 59.302 59.302h459.708c32.703 0 59.302-26.599 59.302-59.302v-459.708c0-32.703-26.599-59.302-59.302-59.302h-308.463v-51.026c0-12.44-10.088-22.528-22.525-22.528-12.44 0-22.528 10.088-22.528 22.528v202.271c0 7.854-6.395 14.249-14.249 14.249h-459.709c-7.854 0-14.251-6.395-14.251-14.249v-459.708c0-7.857 6.397-14.252 14.251-14.252h459.709c7.854 0 14.249 6.395 14.249 14.252v110.328c0 12.44 10.088 22.525 22.528 22.525 12.437 0 22.525-10.085 22.525-22.525v-110.328c0-32.703-26.599-59.305-59.302-59.305h-459.709c-32.703 0-59.302 26.602-59.302 59.305v459.708c0 32.703 26.599 59.302 59.302 59.302h308.464v308.464zM453.97 875.774c-7.854 0-14.252-6.397-14.252-14.251v-308.464h106.195c32.703 0 59.302-26.599 59.302-59.302v-106.195h308.463c7.854 0 14.252 6.398 14.252 14.252v459.708c0 7.854-6.398 14.251-14.252 14.251h-459.708zM475.015 781.203c0.003 32.813 26.515 59.281 59.293 59.269 32.641-0.012 59.29-26.389 59.29-59.269 0.003-32.776-26.568-59.313-59.314-59.313-32.917 0-59.271 26.692-59.268 59.314zM534.305 832.197c-28.21 0.010-51.014-22.755-51.014-50.995-0.003-28.085 22.68-51.038 50.992-51.038 28.179 0 51.045 22.836 51.039 51.039 0 28.283-22.916 50.984-51.017 50.995zM774.042 781.205c0 32.917 26.689 59.271 59.318 59.268 32.796-0.002 59.265-26.494 59.265-59.27 0-32.641-26.37-59.311-59.268-59.311-32.784-0.004-59.318 26.578-59.314 59.313zM833.356 832.197c-28.089 0.003-51.039-22.68-51.039-50.993-0.003-28.17 22.829-51.042 51.039-51.039 28.297 0 50.992 22.934 50.992 51.037 0.003 28.207-22.764 50.992-50.992 50.994zM833.353 795.437c-7.838 0-14.258-6.327-14.258-14.235 0-7.865 6.402-14.26 14.258-14.26 7.919 0 14.234 6.431 14.237 14.259 0 7.883-6.358 14.235-14.237 14.235zM810.819 781.203c0 12.526 10.175 22.509 22.534 22.509 12.443 0 22.512-10.054 22.509-22.512-0.003-12.337-9.964-22.532-22.509-22.532-12.421 0-22.534 10.096-22.534 22.535zM534.283 795.435c-7.875 0-14.24-6.358-14.23-14.25 0.006-7.86 6.364-14.244 14.234-14.244 7.863 0 14.262 6.412 14.262 14.26 0 7.932-6.454 14.235-14.265 14.235zM511.777 781.177c-0.012 12.47 10.063 22.533 22.506 22.533 12.307 0 22.537-9.934 22.537-22.509 0-12.412-10.094-22.535-22.534-22.535-12.459 0-22.497 10.107-22.509 22.511zM624.522 631.665c0 32.776 26.537 59.3 59.299 59.3 32.504 0 59.299-26.319 59.299-59.3 0-32.774-26.537-59.299-59.299-59.299-32.774 0-59.299 26.537-59.299 59.299zM683.821 682.69c-28.194 0-51.023-22.82-51.023-51.025 0-28.191 22.82-51.023 51.023-51.023 28.191 0 51.023 22.82 51.023 51.023 0 28.368-23.046 51.025-51.023 51.025zM683.821 645.914c-7.875 0-14.246-6.377-14.246-14.249s6.374-14.246 14.246-14.246c7.872 0 14.246 6.377 14.246 14.246 0 7.888-6.398 14.249-14.246 14.249zM661.299 631.665c0 12.44 10.076 22.523 22.522 22.523 12.403 0 22.522-10.049 22.522-22.523 0-12.44-10.076-22.522-22.522-22.522-12.44 0-22.522 10.079-22.522 22.522zM833.353 541.445c-32.737 0-59.314-26.531-59.311-59.314zM877.155 441.505c-9.902-11.264-24.626-18.643-43.802-18.643-32.641 0-59.311 26.373-59.311 59.268zM877.155 441.505c9.83 11.183 14.715 25.975 14.78 40.631zM891.935 482.136c0.065 14.656-4.686 29.46-14.497 40.662zM877.438 522.799c-9.883 11.283-24.682 18.646-44.085 18.646zM833.353 496.392c-7.863 0-14.258-6.402-14.258-14.258 0-7.919 6.433-14.234 14.258-14.234 7.882-0.003 14.246 6.355 14.237 14.249-0.009 7.86-6.364 14.243-14.237 14.243zM810.819 482.133c0 12.421 10.097 22.534 22.534 22.534 12.462 0 22.497-10.107 22.509-22.509zM406.277 413.438c0 32.917 26.692 59.271 59.314 59.268 32.793-0.006 59.265-26.494 59.265-59.271 0-32.641-26.37-59.311-59.265-59.311-32.787-0.003-59.321 26.577-59.314 59.314zM465.588 464.431c-28.086 0.003-51.039-22.677-51.039-50.992-0.003-28.169 22.829-51.042 51.039-51.039 28.3 0 50.995 22.934 50.995 51.036 0 28.207-22.77 50.992-50.995 50.995zM465.588 427.672c-7.841 0-14.262-6.33-14.262-14.237 0-7.863 6.405-14.258 14.262-14.258 7.916 0 14.234 6.429 14.234 14.258 0 7.885-6.358 14.237-14.234 14.237zM465.588 435.945c-12.362 0-22.534-9.982-22.534-22.509 0-12.437 10.11-22.534 22.534-22.534 12.546 0 22.506 10.197 22.509 22.531 0 12.459-10.066 22.516-22.509 22.512zM256.756 263.9c0 32.774 26.537 59.299 59.297 59.299 32.774 0 59.299-26.568 59.299-59.299 0-32.777-26.537-59.299-59.299-59.299-32.774 0-59.297 26.537-59.297 59.299zM316.053 314.923c-28.191 0-51.023-22.82-51.023-51.023 0-28.194 22.82-51.026 51.023-51.026 28.194 0 51.026 22.823 51.026 51.026 0 28.163-22.826 51.023-51.026 51.023zM316.053 278.146c-7.873 0-14.246-6.377-14.246-14.246 0-7.875 6.376-14.249 14.246-14.249 7.875 0 14.249 6.377 14.249 14.249 0 7.885-6.398 14.246-14.249 14.246zM293.532 263.9c0 12.44 10.077 22.522 22.521 22.522 12.406 0 22.522-10.051 22.522-22.522 0-12.44-10.076-22.522-22.522-22.522-12.439 0-22.521 10.076-22.521 22.522zM582.69 232.181c-7.872 0-14.252-6.38-14.252-14.249 0-7.872 6.38-14.252 14.252-14.252 7.869 0 14.249 6.38 14.249 14.252 0 7.869-6.38 14.249-14.249 14.249zM560.162 217.932c0 12.44 10.085 22.525 22.528 22.525 12.44 0 22.525-10.085 22.525-22.525s-10.085-22.525-22.525-22.525c-12.443 0-22.528 10.085-22.528 22.525zM107.248 114.365c0 32.644 26.371 59.314 59.268 59.311 32.775 0.006 59.317-26.565 59.313-59.311 0-32.917-26.69-59.268-59.308-59.268-32.801 0-59.273 26.494-59.273 59.268zM166.515 165.404c-28.296 0-50.992-22.934-50.992-51.039 0-28.207 22.768-50.992 50.998-50.992 28.082 0 51.033 22.68 51.033 50.992 0.003 28.179-22.835 51.042-51.039 51.039zM166.519 128.63c-7.917 0-14.233-6.433-14.235-14.262-0.001-7.882 6.359-14.237 14.235-14.237 7.836 0 14.26 6.33 14.26 14.237 0 7.863-6.412 14.262-14.26 14.262zM144.010 114.371c0.002 12.338 9.963 22.531 22.509 22.531 12.412 0 22.535-10.094 22.535-22.534 0-12.527-10.177-22.512-22.535-22.512-12.443 0-22.512 10.057-22.509 22.516z" />
<glyph unicode="&#xe904;" glyph-name="menu-down" d="M513.418 223.918c14.954-0.029 29.446 5.179 40.96 14.72l384.003 320c27.213 22.622 30.938 63.024 8.32 90.24-22.624 27.217-63.027 30.942-90.24 8.32l-343.043-286.72-343.040 276.48c-13.222 10.737-30.179 15.761-47.116 13.959s-32.457-10.281-43.124-23.56c-11.848-13.302-17.616-30.942-15.916-48.675s10.715-33.955 24.876-44.765l384-309.119c11.846-8.033 26.042-11.864 40.32-10.881z" />
<glyph unicode="&#xe905;" glyph-name="menu-up" d="M479.454 686.772c15.951 0.031 31.409-5.524 43.691-15.701l409.603-341.334c29.027-24.13 33-67.225 8.875-96.256-24.132-29.031-67.229-33.004-96.256-8.875l-365.913 305.835-365.909-294.912c-14.104-11.453-32.191-16.811-50.257-14.89s-34.621 10.966-45.999 25.13c-12.639 14.19-18.791 33.006-16.977 51.921s11.429 36.219 26.534 47.748l409.6 329.728c12.635 8.569 27.778 12.655 43.008 11.605z" />
<glyph unicode="&#xe906;" glyph-name="eye-off" d="M511.989 384.006c35.346 0 63.999 28.654 63.999 64.001s-28.653 63.999-63.999 63.999c-35.346 0-64-28.653-64-63.999s28.654-64.001 64-64.001zM652.362 186.886l-55.040 57.173-57.173 57.173c-8.599-1.508-17.299-2.361-26.027-2.56-19.789-0.284-39.438 3.374-57.803 10.752-18.365 7.373-35.080 18.33-49.174 32.228-14.094 13.892-25.284 30.453-32.922 48.708-7.638 18.26-11.57 37.854-11.568 57.646 0.198 8.727 1.054 17.427 2.56 26.026l-85.333 85.333-66.56 64.854c-48.157-45.375-89.412-97.555-122.453-154.88-3.745-6.486-5.716-13.844-5.716-21.333s1.971-14.847 5.716-21.333c26.88-46.507 170.667-277.334 421.973-277.334h10.667c47.257 1.399 93.9 11.076 137.813 28.587l-8.96 8.96zM485.963 594.779c8.599 1.506 17.299 2.363 26.027 2.561 39.605 0 77.59-15.734 105.597-43.739 28.001-28.005 43.736-65.989 43.736-105.594-0.199-8.728-1.052-17.428-2.56-26.027l150.187-150.187c48.759 45.255 90.596 97.439 124.16 154.881 3.743 6.486 5.717 13.843 5.717 21.333s-1.974 14.847-5.717 21.333c-27.307 47.36-177.493 285.013-432.639 277.333-47.255-1.402-93.899-11.077-137.813-28.587l123.307-123.307zM883.615 136.966l-55.467 55.040-627.199 627.627c-3.978 3.978-8.701 7.133-13.899 9.287s-10.768 3.261-16.394 3.261c-5.626 0-11.197-1.108-16.395-3.261s-9.92-5.309-13.899-9.287c-8.034-8.034-12.548-18.931-12.548-30.293s4.514-22.259 12.548-30.294l95.573-97.707 74.667-72.533 397.226-396.801 115.2-115.627c3.965-3.999 8.687-7.174 13.887-9.341 5.2-2.162 10.775-3.277 16.407-3.277s11.207 1.115 16.407 3.277c5.2 2.167 9.921 5.342 13.887 9.341 3.999 3.965 7.174 8.687 9.341 13.887s3.282 10.775 3.282 16.407c0 5.632-1.115 11.207-3.282 16.407s-5.342 9.921-9.341 13.887z" />
<glyph unicode="&#xe907;" glyph-name="eye-show" d="M576.006 447.998c0-35.346-28.657-63.998-64.003-63.998s-64 28.652-64 63.998c0 35.346 28.654 64 64 64s64.003-28.654 64.003-64zM500.483 746.665c255.15 7.68 405.336-229.973 432.643-277.333 7.617-13.201 7.617-29.465 0-42.667-36.693-63.998-173.653-271.358-409.603-277.332h-10.667c-251.307 0-395.093 230.827-421.973 277.332-7.621 13.202-7.621 29.466 0 42.667 37.12 64 173.653 271.36 409.6 277.333zM362.67 447.998c0-82.476 66.859-149.332 149.333-149.332s149.336 66.856 149.336 149.332c0 82.475-66.862 149.333-149.336 149.333s-149.333-66.859-149.333-149.333z" />
<glyph unicode="&#xe908;" glyph-name="close-circle-fill" d="M938.662 447.997c0 235.642-191.027 426.667-426.669 426.667-235.64 0-426.666-191.025-426.666-426.667s191.025-426.666 426.666-426.666c235.642 0 426.669 191.024 426.669 426.666zM655.302 304.694c-12.496-12.499-32.758-12.499-45.254 0l-98.051 98.051-98.054-98.054c-12.496-12.496-32.758-12.496-45.254 0-12.496 12.499-12.496 32.758 0 45.258l98.051 98.051-98.051 98.051c-12.496 12.499-12.496 32.758 0 45.254 12.496 12.499 32.758 12.499 45.254 0l98.054-98.051 98.051 98.051c12.496 12.499 32.758 12.499 45.254 0 12.496-12.496 12.496-32.758 0-45.254l-98.051-98.051 98.051-98.051c12.496-12.499 12.496-32.758 0-45.254z" />
<glyph unicode="&#xe909;" glyph-name="close" d="M832 717.716l-50.284 50.284-269.716-269.727-269.716 269.727-50.284-50.284 269.716-269.716-269.716-269.716 50.284-50.284 269.716 269.716 269.716-269.716 50.284 50.284-269.716 269.716 269.716 269.716z" />
<glyph unicode="&#xe90a;" glyph-name="poker" horiz-adv-x="1055" d="M103.315 619.895c-20.761-52.177-32.176-109.087-32.176-168.665 0-60.068 11.604-117.428 32.693-169.956l86.009 46.831c-28.706 79.23-28.6 166.577 0.288 245.838l-86.814 45.953zM120.385 657.671l86.196-45.626c16.84 33.51 39.249 64.943 67.222 92.917v0c27.907 27.906 59.254 50.274 92.674 67.101l-46.651 85.677c-85.758-43.907-155.796-114.155-199.442-200.069zM357.571 874.938l47.033-86.381c79.317 28.967 166.754 29.1 246.052 0.368l46.831 86.009c-52.531 21.093-109.891 32.7-169.962 32.7-60.068 0-117.428-11.605-169.953-32.696zM735.232 857.735l-46.4-85.219c33.51-16.785 64.931-39.152 92.883-67.104 27.946-27.948 50.313-59.364 67.097-92.868l85.203 46.394c-43.688 85.334-113.453 155.106-198.783 198.797zM951.212 621.193l-85.988-46.822c28.737-79.307 28.607-166.751-0.363-246.073l86.354-47.023c21.088 52.528 32.694 109.888 32.694 169.956 0 60.072-11.605 117.431-32.697 169.962zM934.021 243.529l-85.656 46.642c-16.828-33.42-39.194-64.763-67.1-92.669-27.906-27.909-59.252-50.275-92.669-67.103l46.648-85.668c85.327 43.694 155.089 113.465 198.777 198.799zM697.499 27.53l-47.033 86.376c-79.317-28.97-166.76-29.103-246.064-0.366l-46.834-86.016c52.528-21.091 109.888-32.697 169.956-32.697 60.075 0 117.44 11.608 169.975 32.703zM319.823 44.721l46.406 85.228c-33.507 16.784-64.926 39.151-92.876 67.103-27.951 27.949-50.318 59.37-67.103 92.88l-85.222-46.406c43.688-85.34 113.459-155.114 198.795-198.805zM29.765 451.23c0 274.914 222.852 497.778 497.759 497.778 274.904 0 497.757-222.864 497.757-497.778s-222.853-497.779-497.757-497.779c-274.907 0-497.759 222.866-497.759 497.779zM752.46 676.157c-123.947 123.947-325.151 123.799-449.401-0.45-124.247-124.252-124.396-325.455-0.45-449.399 123.949-123.951 325.153-123.802 449.401 0.45v0c124.248 124.248 124.397 325.452 0.45 449.399zM539.735 665.037l-10.411-17.875-10.308 17.935c6.42 3.69 14.32 3.667 20.719-0.060zM594.925 283.015c9.138-2.091 18.646-3.196 28.402-3.196 70.057 0 126.855 56.798 126.855 126.858 0 36.513-14.69 71.010-34.714 101.264-20.095 30.363-46.511 57.884-72.291 80.877-25.861 23.068-51.625 42.052-70.879 55.253-9.647 6.613-17.706 11.807-23.388 15.368-2.842 1.781-5.095 3.156-6.656 4.097-0.782 0.471-1.39 0.833-1.812 1.085l-0.496 0.293-0.186 0.108-0.016 0.009c-0.003 0.003-0.009 0.006-10.42-17.869-10.308 17.935-10.314 17.932-10.321 17.929l-0.012-0.009-0.043-0.025-0.143-0.082-0.5-0.29c-0.428-0.249-1.040-0.609-1.825-1.077-1.573-0.935-3.838-2.301-6.703-4.071-5.722-3.538-13.84-8.699-23.555-15.27-19.394-13.113-45.348-31.974-71.398-54.877-25.969-22.829-52.584-50.157-72.841-80.3-20.176-30.025-35.028-64.32-35.028-100.647 0-70.063 56.796-126.858 126.856-126.858 9.843 0 19.434 1.123 28.644 3.255l-3.317-24.697c-0.794-5.914 1.002-11.882 4.931-16.375 3.928-4.49 9.604-7.069 15.571-7.069h97.854c5.967 0 11.643 2.579 15.571 7.069 3.928 4.493 5.728 10.46 4.931 16.375l-3.072 22.872zM529.25 622.924c-5.12-3.202-11.906-7.556-19.85-12.93-18.423-12.456-42.887-30.251-67.258-51.675-24.452-21.501-48.255-46.176-65.815-72.307-17.638-26.249-27.996-52.494-27.996-77.57 0-47.213 38.273-85.485 85.482-85.485 15.853 0 30.636 4.301 43.315 11.785 6.824 4.028 15.348 3.804 21.951-0.574 6.6-4.381 10.122-12.145 9.067-19.996l-4.85-36.098h50.548l-4.592 34.174c-1.055 7.841 2.458 15.596 9.042 19.977 6.588 4.381 15.096 4.624 21.92 0.624 12.636-7.407 27.344-11.658 43.114-11.658 47.206 0 85.479 38.273 85.479 85.485 0 25.439-10.33 51.976-27.84 78.429-17.436 26.345-41.066 51.197-65.328 72.837-24.182 21.566-48.457 39.471-66.737 52.004-7.86 5.39-14.575 9.759-19.651 12.977z" />
<glyph unicode="&#xe90b;" glyph-name="dragon-tiger" d="M370.115 252.077v32.202h-257.612c-26.63 0-48.302 21.67-48.302 48.301s21.672 48.304 48.302 48.304h175.288c24.425 0 45.677 17.29 49.444 40.218 2.352 14.138-1.594 28.467-10.787 39.286-9.209 10.867-22.636 17.098-36.837 17.098h-209.308c-8.888 0-16.101 7.213-16.101 16.102v96.605c0 26.63 21.672 48.301 48.302 48.301s48.302-21.67 48.302-48.301v-16.102h32.201v16.102c0 5.504-0.564 10.899-1.626 16.099h33.828v-32.202h32.201v32.202h32.201v-32.202h32.201v32.202h25.053c11.174-19.158 31.718-32.202 55.45-32.202 35.52 0 64.403 28.886 64.403 64.403s-28.883 64.402-64.403 64.402c-35.517 0-64.4-28.884-64.4-64.402h-161.426c-14.716 19.433-37.804 32.201-63.984 32.201-44.389 0-80.503-36.115-80.503-80.502v-96.605c0-26.63 21.671-48.304 48.302-48.304h209.308c4.734 0 9.194-2.077 12.285-5.699 3.108-3.686 4.38-8.371 3.59-13.219-1.24-7.453-9-13.28-17.694-13.28h-175.288c-44.389 0-80.503-36.115-80.503-80.506s36.114-80.502 80.503-80.502h257.612zM402.314 670.694c17.76 0 32.202-14.442 32.202-32.201s-14.442-32.202-32.202-32.202c-17.757 0-32.198 14.442-32.198 32.202s14.442 32.201 32.198 32.201zM863.261 493.795c30.912 1.789 59.83 14.765 82.739 37.693 23.203 23.2 35.971 54.048 35.955 86.88l-0.032 36.225h-110.163c-18.096 0-35.114 7.052-47.914 19.836-6.294 6.295-13.123 11.866-20.256 16.89 28.755 5.362 56.579 15.441 82.115 30.044 39.51 22.557 64.032 64.837 64.032 110.338v22.348l-174.886-58.3c-24.602-8.196-50.186-12.349-76.058-12.349-3.674 0-6.669 2.995-6.669 6.666 0 1.755 0.71 3.478 1.949 4.718l85.222 85.221h-38.867c-84.707 0-164.323-32.234-225.411-90.486v64.95l-27.482-27.484c-28.112-28.112-65.466-43.585-105.219-43.585h-21.638c-18.982 0-36.822-7.39-50.251-20.818s-20.818-31.267-20.818-50.25v-41.636h32.201v41.636c0 10.385 4.042 20.142 11.382 27.484 7.344 7.342 17.117 11.383 27.485 11.383h21.638c36.323 0 71.005 10.627 100.502 30.414v-62.615h32.198v25.536l16.906 16.906c45.728 45.726 103.802 74.578 166.707 83.45l-27.322-27.323c-7.229-7.245-11.382-17.26-11.382-27.5 0-21.43 17.437-38.867 38.867-38.867 29.334 0 58.346 4.701 86.218 13.991l129.594 43.198c-6.278-24.618-22.298-46.16-44.874-59.057-34.71-19.852-74.208-30.334-114.202-30.334h-31.203v-0.387c-2.688 0.129-5.344 0.387-8.048 0.387-39.446 0-76.528-15.006-104.944-42.168-20.448 16.664-46.435 26.067-72.938 26.067-17.776 0-35.565-4.202-51.488-12.156l-11.29-5.651 14.413-28.804 11.286 5.651c31.040 15.489 71.245 8.952 95.734-15.537l7.904-7.905-7.904-7.907c-24.49-24.486-64.71-31.040-95.734-15.536l-11.286 5.651-14.413-28.803 11.29-5.651c15.923-7.955 33.728-12.157 51.488-12.157 30.317 0 59.99 12.301 81.421 33.731l30.672 30.672-15.955 15.956c22.282 20.834 51.088 32.346 81.744 32.346 32.038 0 62.147-12.462 84.816-35.132 18.87-18.869 43.971-29.272 70.666-29.272h77.994v-4.054c0.016-24.202-9.405-46.966-27.341-64.902-17.837-17.84-41.443-27.645-66.512-27.645h-73.837l34.97-34.973c35.456-35.453 81.341-56.688 130.739-60.877-2.752-10.592-8.291-20.445-16.083-28.24l-2.771-2.768c-11.478-11.482-27.354-18.048-43.584-18.048h-64.403v-16.102c0-59.411 46.208-108.243 104.573-112.413-17.322-34.554-47.594-60.925-84.624-73.277-14.941-4.989-30.544-7.517-46.352-7.517h-125.168l90.63-90.63c-39.574-14.653-81.002-22.077-123.299-22.077-94.928 0-184.16 36.97-251.283 104.093l-10.061 10.064c-3.414 15.325-5.235 31.008-5.235 46.851h-32.202c0-44.63 12.029-88.458 34.762-126.81-46.755 6.346-89.953 27.661-123.877 61.587l-55.789 55.789v-107.715l-18.725 10.691c-38.094 21.77-61.778 62.566-61.778 106.458h-32.202c0-55.418 29.883-106.925 78.008-134.426l66.898-38.237v85.494l0.821-0.822c47.094-47.094 109.677-73.018 176.285-73.018h28.451l-27.693 46.131c66.931-50.784 148.141-78.33 233.619-78.33 49.51 0 97.942 9.322 143.923 27.725l36.774 14.698-70.294 70.282h47.434c19.254 0 38.285 3.075 56.544 9.178 49.978 16.646 89.875 54.259 109.437 103.187l13.008 32.541h-39.882c-38.883 0-71.405 27.709-78.877 64.403h30.576c24.698 0 48.88 10.013 66.352 27.482l2.768 2.771c17.469 17.469 27.485 41.651 27.485 66.349v16.102h-16.102c-37.242 0-72.774 11.35-102.576 32.41zM627.712 574.090h-32.202v-28.304c0-39.754-15.472-77.107-43.584-105.219s-65.466-43.584-105.216-43.584h-49.155c3.059 10.208 4.749 21.011 4.749 32.202 0 62.131-50.573 112.704-112.705 112.704h-193.208v-32.202h193.208c44.388 0 80.503-36.115 80.503-80.502 0-44.39-36.115-80.506-80.503-80.506h-193.208v-32.198h193.208c38.19 0 71.953 19.142 92.353 48.301h36.742l10.464-32.202h-26.854v-67.171c0-33.184 13.459-65.661 36.918-89.117 23.459-23.459 55.949-36.918 89.117-36.918h89.939l-41.638 41.635c-12.928 12.944-21.894 28.771-26.307 46.032l26.842-10.739c20.8-8.307 42.714-12.528 65.094-12.528 46.819 0 90.854 18.243 123.958 51.347l45.258 45.258h-38.867c-26.227 0-51.36 7.197-73.13 20.656 30.704 7.216 58.883 22.832 81.744 45.696l62.454 62.454h-151.571v-32.202h73.837l-7.485-7.488c-26.326-26.323-61.328-40.816-98.554-40.816h-38.867l30.253-30.253c23.846-23.843 53.488-39.814 85.738-46.595-26.163-23.184-59.491-35.856-94.768-35.856-18.275 0-36.147 3.446-53.149 10.24l-74.112 29.642v-23.779c0-29.482 9.549-57.482 27.178-80.506h-13.83c-24.698 0-48.88 10.016-66.349 27.485-17.472 17.469-27.501 41.651-27.501 66.352v34.97h21.622c63.034 0 122.301 24.538 166.867 69.12s69.12 103.834 69.12 166.867v37.725h-32.202v-32.202h-32.394c0.032 1.302 0.192 2.592 0.192 3.898v28.304zM462.906 332.902l-10.448 32.15c11.898 0.371 23.571 1.869 34.938 4.477l21.686-29.818c-14.941-3.994-30.381-6.294-46.176-6.81zM540.64 351.062l-21.123 29.062c11.078 4.861 21.622 10.883 31.59 17.952l30.461-22.138c-12.704-9.984-26.438-18.275-40.928-24.877zM605.638 398.237l-29.35 21.334c8.515 8.726 16.019 18.176 22.509 28.192l34.842-11.318c-7.712-13.67-17.117-26.454-28-38.208zM657.981 509.686c-1.962-15.069-5.587-29.722-10.771-43.811l-33.117 10.771c4.394 10.627 7.744 21.69 10.029 33.040h33.859z" />
<glyph unicode="&#xe90c;" glyph-name="blackjack" d="M951.936 771.394l-372.394 136.387c-35.731 13.101-75.568-5.341-88.685-41.137l-49.405-134.893h-340.333c-38.108 0-69.112-31.004-69.112-69.122v-619.893c0-40.803 33.186-73.984 73.983-73.984h396.585c38.109 0 69.11 31.005 69.11 69.123v60.214l122.416-44.829c7.818-2.864 15.811-4.218 23.699-4.218 28.189 0 54.742 17.382 64.992 45.354l213.174 582.082c14.035 38.294-5.718 80.878-44.032 94.915zM534.474 37.869c0-17.59-14.304-31.901-31.894-31.901h-396.588c-20.261 0-36.764 16.493-36.764 36.762v619.894c0 17.591 14.301 31.902 31.892 31.902h326.701l-89.062-243.179c-18.782 21.446-33.666 37.251-34.424 38.051-3.508 3.718-8.397 5.827-13.52 5.827s-10.012-2.109-13.52-5.827c-34.586-36.592-115.022-125.472-115.022-160.47 0-41.584 35.749-75.411 79.673-75.411 11.092 0 21.699 2.374 31.521 6.432-0.307-30.445 18.056-59.254 48.24-70.317l212.758-77.92 0.010-73.843zM288.153 313.168c-4.596-0.688-8.914-2.685-11.859-6.365-8.179-10.211-20.699-16.064-34.349-16.064-23.406 0-42.453 17.13-42.472 37.875 1.689 14.957 46.287 71.414 91.286 120.621 8.616-9.459 20.447-22.682 32.748-37.146 0.195-0.227 0.474-0.317 0.675-0.531l-36.029-98.39zM961.005 689.269l-213.155-582.072c-6.074-16.531-24.371-25.046-40.947-18.992l-372.397 136.381c-19.028 6.979-28.84 28.144-21.862 47.181l213.158 582.074c6.070 16.521 24.406 24.997 40.944 18.991l372.397-136.382c19.030-6.979 28.842-28.143 21.862-47.18zM676.307 620.454c-4.797 1.754-10.125 1.462-14.701-0.819-45.056-22.47-151.149-78.272-163.162-111.133-7.037-19.155-5.654-40.003 3.853-58.701 9.267-18.246 25.261-32.282 45.014-39.517 10.576-3.882 21.533-5.277 32.304-4.768l-17.021-46.464c-3.526-9.651 1.44-20.336 11.088-23.872 2.109-0.774 4.272-1.146 6.397-1.146 7.581 0 14.72 4.682 17.485 12.221l16.515 45.088c7.299-6.173 15.648-11.242 24.992-14.666 9.398-3.44 19.12-5.149 28.79-5.149 10.65 0 21.21 2.080 31.098 6.243 19.354 8.141 33.856 23.168 40.854 42.32 12.048 32.864-32.912 143.987-52.797 190.243-2.042 4.694-5.894 8.355-10.71 10.118zM704.861 432.896c-3.418-9.344-10.634-16.73-20.336-20.81-10.144-4.262-21.738-4.435-32.662-0.458-10.106 3.702-18.173 10.653-23.226 19.472l0.928 2.525c3.526 9.648-1.44 20.336-11.088 23.872-9.306 3.411-19.507-1.222-23.379-10.262-10.65-5.427-23.155-6.352-34.995-2.006-10.886 3.987-19.629 11.603-24.643 21.434-4.758 9.379-5.51 19.69-2.202 28.742 6.723 13.475 68.061 51.168 127.254 81.904 25.357-61.68 47.837-130.051 44.349-144.413zM199.5 573.565v83.743c0 10.277-8.323 18.61-18.61 18.61s-18.61-8.332-18.61-18.61v-83.743c0-5.136-4.178-9.306-9.305-9.306s-9.305 4.17-9.305 9.306c0 10.275-8.323 18.608-18.61 18.608s-18.61-8.333-18.61-18.608c0-25.654 20.862-46.525 46.524-46.525s46.524 20.87 46.524 46.525zM551.75 704.952l5.674 7.090 32.874-11.943v-5.569c0-10.277 8.323-18.61 18.608-18.61 10.288 0 18.611 8.332 18.611 18.61v111.659c0 7.905-4.995 14.948-12.451 17.563-7.453 2.591-15.738 0.228-20.698-5.941l-71.693-89.616c-6.416-8.026-5.11-19.736 2.906-26.151 8.048-6.444 19.754-5.123 26.17 2.908zM590.298 739.705l-8.33 3.024 8.33 10.412v-13.436z" />
<glyph unicode="&#xe90d;" glyph-name="qr" d="M835.554 494.221h-184.892c-50.842 0-92.442 41.601-92.442 92.446v184.889c0 50.845 41.6 92.445 92.442 92.445h184.892c50.842 0 92.442-41.6 92.442-92.445v-184.889c0-50.845-41.6-92.446-92.442-92.446zM650.662 771.555v-184.889h184.892v184.889h-184.892zM188.444 32h184.889c50.844 0 92.446 41.6 92.446 92.446v184.887c0 50.846-41.602 92.446-92.446 92.446h-184.889c-50.844 0-92.444-41.6-92.444-92.446v-184.887c0-50.846 41.6-92.446 92.444-92.446zM188.444 124.446v184.887h184.889v-184.887h-184.889zM835.554 309.333v-46.225h-92.442c-27.733 0-46.225-18.487-46.225-46.221s18.492-46.221 46.225-46.221h138.667c27.733 0 46.221 18.487 46.221 46.221v138.671c0 24.265-14.157 41.455-36.275 45.372-3.157 0.559-6.481 0.849-9.946 0.849l-46.225-92.446zM835.554 309.333c-27.733 0.004-46.221 18.492-46.221 46.225s18.487 46.221 46.221 46.221h46.221l-46.221-92.446zM604.868 32h92.019c27.733 0 46.221 18.487 46.221 46.221s-18.487 46.225-46.221 46.225h-46.225v92.442c0 27.733-18.487 46.221-46.221 46.221s-46.221-18.487-46.221-46.221v-138.667l46.647-46.221zM835.554 32h46.225c27.733 0 46.221 18.487 46.221 46.221s-18.487 46.225-46.221 46.225h-46.225c-27.733 0-46.221-18.492-46.221-46.225s18.487-46.221 46.221-46.221zM696.887 309.333h-92.446c-27.733 0-46.221 18.492-46.221 46.225s18.487 46.221 46.221 46.221h92.446c27.733 0 46.221-18.487 46.221-46.221s-18.487-46.225-46.221-46.225zM188.444 494.221h184.889c50.844 0 92.446 41.601 92.446 92.446v184.889c0 50.845-41.602 92.445-92.446 92.445h-184.889c-50.844 0-92.444-41.6-92.444-92.445v-184.889c0-50.845 41.6-92.446 92.444-92.446zM188.444 586.667v184.889h184.889v-184.889h-184.889z" />
<glyph unicode="&#xe90e;" glyph-name="download" horiz-adv-x="1067" d="M192 149.333c0 23.565 19.103 42.667 42.667 42.667h597.333c23.565 0 42.667-19.102 42.667-42.667s-19.102-42.667-42.667-42.667h-597.333c-23.564 0-42.667 19.102-42.667 42.667zM234.667 106.667c-23.564 0-42.667 19.102-42.667 42.667v85.333c0 23.565 19.103 42.667 42.667 42.667s42.667-19.102 42.667-42.667v-85.333c0-23.565-19.103-42.667-42.667-42.667zM832 106.667c-23.565 0-42.667 19.102-42.667 42.667v85.333c0 23.565 19.102 42.667 42.667 42.667s42.667-19.102 42.667-42.667v-85.333c0-23.565-19.102-42.667-42.667-42.667zM533.333 320c-8.845-0.068-17.493 2.615-24.747 7.68l-170.667 120.32c-19.149 13.585-23.726 40.090-10.24 59.307 6.531 9.318 16.515 15.646 27.732 17.57 11.217 1.92 22.738-0.717 32.001-7.33l145.92-101.973 145.067 109.227c18.85 14.138 45.594 10.318 59.733-8.533 14.14-18.85 10.317-45.594-8.533-59.733l-170.667-128c-7.386-5.538-16.367-8.533-25.6-8.533zM533.333 405.333c-23.565 0-42.667 19.102-42.667 42.667v341.333c0 23.564 19.102 42.667 42.667 42.667s42.667-19.103 42.667-42.667v-341.333c0-23.565-19.102-42.667-42.667-42.667z" />
<glyph unicode="&#xe90f;" glyph-name="calendar-arrow-left" horiz-adv-x="585" d="M15.885 515.141l443.237 429.442c10.251 9.941 23.936 15.417 38.528 15.417s28.276-5.476 38.528-15.417l32.641-31.618c21.239-20.603 21.239-54.089-0.001-74.66l-372.196-360.62 372.605-361.022c10.251-9.94 15.911-23.186 15.911-37.317 0-14.146-5.661-27.399-15.912-37.347l-32.641-31.612c-10.259-9.94-23.936-15.419-38.528-15.419s-28.276 5.478-38.528 15.419l-443.644 429.836c-10.276 9.972-15.92 23.286-15.887 37.44-0.032 14.209 5.612 27.515 15.888 37.479z" />
<glyph unicode="&#xe910;" glyph-name="calendar-arrow-right" horiz-adv-x="585" d="M569.258 380.859l-443.237-429.441c-10.251-9.94-23.936-15.419-38.528-15.419s-28.276 5.478-38.528 15.419l-32.641 31.62c-21.24 20.597-21.239 54.082 0 74.657l372.196 360.62-372.605 361.020c-10.251 9.941-15.911 23.192-15.911 37.322 0 14.146 5.66 27.398 15.912 37.346l32.641 31.61c10.26 9.941 23.936 15.417 38.528 15.417s28.276-5.476 38.528-15.417l443.644-429.835c10.276-9.972 15.92-23.286 15.887-37.44 0.032-14.209-5.612-27.515-15.887-37.479z" />
<glyph unicode="&#xe911;" glyph-name="arrow-right" horiz-adv-x="597" d="M127.988-0.034c-14.954-0.034-29.446 5.171-40.96 14.72-13.089 10.846-21.322 26.462-22.883 43.392s3.679 33.783 14.562 46.848l286.72 343.036-276.48 343.68c-10.737 13.222-15.761 30.179-13.96 47.116s10.281 32.457 23.56 43.124c13.386 11.778 31.080 17.438 48.817 15.616s33.911-10.962 44.623-25.216l309.12-384c19.412-23.616 19.412-57.664 0-81.28l-320-383.996c-13.022-15.71-32.753-24.269-53.12-23.040z" />
<glyph unicode="&#xe912;" glyph-name="search" d="M494.933 757.333c-161.414 0-292.267-130.852-292.267-292.267 0-161.417 130.852-292.267 292.267-292.267 161.412 0 292.267 130.85 292.267 292.267 0 161.414-130.854 292.267-292.267 292.267zM138.667 465.067c0 196.76 159.506 356.267 356.267 356.267s356.267-159.506 356.267-356.267c0-196.762-159.505-356.267-356.267-356.267s-356.267 159.505-356.267 356.267zM762.441 197.559c12.497 12.497 32.759 12.497 45.252 0l68.267-68.267c12.497-12.497 12.497-32.755 0-45.252s-32.755-12.497-45.252 0l-68.267 68.267c-12.497 12.493-12.497 32.755 0 45.252z" />
<glyph unicode="&#xe913;" glyph-name="check" d="M512 960c282.771 0 512-229.228 512-512s-229.229-512-512-512c-282.772 0-512 229.229-512 512s229.228 512 512 512zM697.67 649.075l-257.352-257.352-113.992 113.992c-26.656 26.656-69.876 26.656-96.536 0-26.656-26.656-26.656-69.876 0-96.532l162.26-162.259c26.656-26.656 69.876-26.656 96.532 0l305.619 305.619c26.656 26.656 26.656 69.876 0 96.532s-69.875 26.656-96.531 0z" />
<glyph unicode="&#xe914;" glyph-name="flash" horiz-adv-x="652" d="M50.912 389.814h179.888l-37.138-351.11c-0.164-1.059-0.209-4.191-0.209-5.25 0-28.063 22.849-50.908 50.911-50.908 15.966 0 31.195 7.652 41.299 21.215l355.793 508.234c6.555 8.763 10.179 19.591 10.179 30.546 0 28.062-22.842 50.911-50.904 50.911h-220.173l36.654 309.655c0.119 1.178 0.201 4.803 0.201 5.981 0.045 28.062-22.804 50.912-50.867 50.912-15.967 0-31.195-7.659-41.62-21.627l-314.748-467.103c-6.555-8.755-10.179-19.591-10.179-30.546 0-28.062 22.85-50.911 50.912-50.911z" />
<glyph unicode="&#xe915;" d="M489.099 558.282l-169.134 169.134c-16.742 16.742-43.889 16.742-60.632 0s-16.742-43.889 0-60.632l224.050-224.054c15.784-15.78 41.379-15.78 57.165 0l224.046 224.054c16.745 16.742 16.745 43.889 0 60.632-16.74 16.742-43.886 16.742-60.632 0l-169.131-169.134c-3.003-3.003-6.568-5.385-10.491-7.010s-8.128-2.461-12.375-2.461c-4.246 0-8.452 0.836-12.375 2.461s-7.488 4.007-10.491 7.010z" />
<glyph unicode="&#xe916;" d="M489.099 315.753l-169.134 169.136c-16.742 16.742-43.889 16.742-60.632 0s-16.742-43.889 0-60.632l224.050-224.055c15.784-15.78 41.379-15.78 57.165 0l224.046 224.055c16.745 16.742 16.745 43.889 0 60.632-16.74 16.742-43.886 16.742-60.632 0l-169.131-169.136c-3.003-3.002-6.568-5.384-10.491-7.006-3.924-1.628-8.128-2.463-12.375-2.463s-8.452 0.835-12.375 2.463c-3.924 1.622-7.488 4.004-10.491 7.006z" />
<glyph unicode="&#xe917;" glyph-name="warning-black" d="M469.333 234.667c0 23.564 19.103 42.667 42.667 42.667s42.667-19.103 42.667-42.667c0-23.564-19.103-42.667-42.667-42.667s-42.667 19.103-42.667 42.667zM512 906.667c-252.935 0-458.667-205.731-458.667-458.667 0-252.933 205.731-458.667 458.667-458.667 252.934 0 458.667 205.733 458.667 458.667 0 252.936-205.733 458.667-458.667 458.667zM512 842.667c218.345 0 394.667-176.32 394.667-394.667 0-218.345-176.322-394.667-394.667-394.667-218.347 0-394.667 176.322-394.667 394.667 0 218.347 176.319 394.667 394.667 394.667zM512 693.333c-17.673 0-32-14.327-32-32v0-298.667c0-17.673 14.327-32 32-32v0c17.673 0 32 14.327 32 32v0 298.667c0 17.673-14.327 32-32 32v0z" />
<glyph unicode="&#xe918;" glyph-name="bull" d="M21.151 900.65c-12.44 25.917 17.281 52.549 41.679 36.174 54.156-36.348 67.159-98.812 68.346-158.435 0.867-43.395 29.439-81.197 70.764-93.579 0 0 0 0 0 0l43.745-13.106c0.124 0.127 0.249 0.254 0.374 0.381 31.824 32.273 78.576 46.241 127.748 39.029 19.394-2.845 36.787-6.544 52.849-9.96 6.268-1.333 12.332-2.623 18.235-3.802 21.347-4.266 42.075-7.449 67.112-7.449s45.769 3.182 67.116 7.448c5.903 1.179 11.966 2.469 18.235 3.802 16.062 3.417 33.456 7.116 52.849 9.961 49.17 7.212 95.923-6.755 127.748-39.028 2.187-2.217 4.29-4.511 6.316-6.879l37.793 11.323c41.333 12.383 69.892 50.207 70.762 93.632 1.192 59.451 13.659 121.904 68.389 158.43 24.261 16.193 54.166-10.135 41.64-36.204-19.946-41.525-13.228-82.681-3.92-139.125 14.972-90.819-38.883-178.916-126.446-206.823 12.807-12.317 25.585-27.586 37.025-46.427 16.64-27.399-5.054-61.989-36.89-59.070-22.707 2.081-53.358 7.892-83.836 23.109-3.087-5.749-6.294-11.41-9.56-17.039-3.215-5.533-6.469-11.015-9.743-16.519-12.383-20.846-24.975-42.043-36.209-67.741-32.571-74.503-32.742-140.456-32.742-213.723 0-0.040 0-0.084 0-0.124v-55.706c0-39.219-30.775-71.252-69.493-73.267-7.099-21.109-21.138-36.97-39.406-47.693-21.808-12.8-48.955-17.957-76.756-17.957h-5.734c-27.802 0-54.945 5.157-76.752 17.957-18.267 10.723-32.307 26.584-39.406 47.693-38.721 2.011-69.499 34.041-69.499 73.267v55.596c-0.001 0.077-0.001 0.157-0.001 0.234 0 73.267-0.175 139.22-32.742 213.723-11.235 25.699-23.827 46.896-36.211 67.741-3.271 5.504-6.527 10.986-9.74 16.519-3.266 5.625-6.475 11.286-9.558 17.035-30.478-15.217-61.129-21.025-83.834-23.106-31.837-2.918-53.532 31.671-36.892 59.070 13.435 22.122 28.706 39.314 43.698 52.586l-6.521 2.074c-34.338 10.906-63.528 31.089-85.407 57.062-6.506 7.724-5.52 19.259 2.204 25.766s19.26 5.52 25.766-2.204c17.556-20.841 40.948-37.015 68.51-45.772l40.315-12.807c0.128-0.037 0.255-0.080 0.382-0.121l3.105-0.987c0.895 24.108 6.626 45.904 16.425 64.721l-31.535 9.448c-56.688 16.985-95.651 68.758-96.832 127.883-0.867 43.536-8.403 80.77-29.197 107.435 10.291-41.525 3.445-82.902-3.484-124.777-0.26-1.574-0.521-3.149-0.781-4.725-4.576-27.754-1.152-55.156 8.709-79.712 3.763-9.371-0.783-20.019-10.154-23.783s-20.020 0.783-23.783 10.154c-12.286 30.594-16.549 64.759-10.856 99.29 9.305 56.434 16.022 97.588-3.915 139.107zM265.619 639.11c-16.304-20.405-25.596-49.418-21.775-86.326 0.047-0.344 0.084-0.691 0.111-1.042 0.449-4.089 1.058-8.272 1.836-12.555 2.672-14.702 7.362-28.175 13.549-41.626 0.173-0.344 0.335-0.691 0.484-1.042 4.752-10.203 10.358-20.411 16.59-31.141 2.888-4.974 5.925-10.083 9.057-15.349 12.505-21.032 26.542-44.639 38.777-72.631 18.808-43.026 27.737-83.536 31.975-122.829 25.345 29.886 63.167 48.856 105.422 48.856h94.365c10.101 0 18.286-8.188 18.286-18.286s-8.185-18.286-18.286-18.286h-94.365c-56.108 0-101.591-45.484-101.591-101.592v-72.064c0-20.323 16.474-36.798 36.793-36.798h10.108c0.238 0.007 0.475 0.007 0.713 0h208.797c0.157 0.004 0.315 0.004 0.475 0h10.218c20.323 0 36.798 16.475 36.798 36.798v72.064c0 41.055-24.379 76.445-59.531 92.467-9.187 4.187-13.243 15.035-9.051 24.225 4.187 9.187 15.031 13.243 24.221 9.051 18.644-8.496 35.079-21.021 48.187-36.469 4.235 39.303 13.162 79.824 31.978 122.862 12.237 27.992 26.273 51.599 38.777 72.627 3.134 5.27 6.17 10.379 9.059 15.353 6.25 10.763 11.871 20.996 16.629 31.225 0.128 0.296 0.263 0.589 0.406 0.878 6.206 13.477 10.909 26.975 13.586 41.706 0.278 1.532 0.538 3.054 0.772 4.56 0.051 0.464 0.121 0.922 0.208 1.379 5.5 37.069-1.883 66.661-16.483 88.118-0.216 0.298-0.428 0.604-0.629 0.916-3.098 4.441-6.506 8.525-10.178 12.246-22.59 22.91-57.183 34.274-96.399 28.522-18.169-2.665-33.781-5.987-49.43-9.317-6.528-1.389-13.063-2.78-19.796-4.125-22.543-4.505-45.886-8.158-74.28-8.157zM804.528 633.1c8.653-19.304 13.246-41.43 13.045-65.731l11.308 3.591c0.274 0.095 0.549 0.183 0.827 0.263l31.536 10.017c70.301 22.333 113.638 93.076 101.603 166.074-0.26 1.579-0.523 3.157-0.783 4.735-6.945 41.97-13.806 83.442-3.408 125.063-21.058-26.689-28.39-63.936-29.268-107.682-1.185-59.131-40.115-110.94-96.83-127.932l-28.028-8.397zM813.213 527.612c-2.245-10.686-5.332-20.751-9.011-30.38 25.41-12.88 51.617-18.026 71.757-19.873 0.673-0.059 1.053 0.073 1.309 0.205 0.322 0.168 0.68 0.475 0.965 0.933 0.285 0.453 0.402 0.907 0.41 1.265 0.011 0.285-0.037 0.684-0.391 1.269-14.416 23.739-31.206 40.583-46.672 52.414l-18.366-5.833zM590.621 19.829h-157.224c4.396-6.557 10.306-11.827 17.503-16.051 14.347-8.419 34.403-12.924 58.24-12.924h5.734c23.837 0 43.897 4.506 58.244 12.924 7.194 4.224 13.104 9.494 17.503 16.051zM219.809 497.229c-4.254 11.132-7.715 22.843-10 35.419-0.229 1.258-0.445 2.512-0.65 3.763l-8.764 2.783c-17.506-11.915-37.707-30.296-54.632-58.167-0.355-0.581-0.401-0.984-0.393-1.265 0.010-0.358 0.126-0.812 0.411-1.269 0.285-0.453 0.644-0.761 0.967-0.929 0.257-0.135 0.637-0.267 1.31-0.205 20.137 1.847 46.344 6.989 71.752 19.869zM265.619 639.11l0.44 0.546c-0.143-0.185-0.29-0.367-0.44-0.546zM512.004 653.332c-28.394 0-51.734 3.653-74.28 8.158-6.729 1.345-13.264 2.736-19.796 4.125-15.649 3.329-31.261 6.651-49.426 9.316-39.215 5.752-73.81-5.613-96.402-28.523-2.102-2.132-4.119-4.382-6.041-6.751zM723.017 535.45c-3.533 9.461-14.065 14.267-23.526 10.734l-37.563-14.029c-24.199-8.507-43.293-27.451-52.027-51.591l-4.257-11.78c-3.434-9.494 1.481-19.979 10.979-23.413s19.979 1.481 23.413 10.979l4.261 11.776c0 0-0.004 0 0 0 5.018 13.875 16 24.726 29.875 29.564l38.115 14.234c9.457 3.533 14.263 14.065 10.73 23.526zM301 535.446c-3.533-9.457 1.273-19.994 10.734-23.526l38.115-14.227c13.876-4.838 24.855-15.693 29.876-29.568 0-0.004 0 0 0 0l4.257-11.776c3.434-9.498 13.919-14.413 23.413-10.979 9.498 3.434 14.413 13.915 10.979 23.413l-4.257 11.78c-8.733 24.141-27.827 43.085-52.027 51.591l-37.563 14.025c-9.461 3.533-19.994-1.273-23.527-10.734zM416.453 196.447c-4.86 0-9.516-1.935-12.946-5.372-24.836-24.894-24.836-65.243 0-90.138 24.861-24.92 65.189-24.92 90.050 0 7.12 7.135 7.12 18.692 0 25.827l-64.161 64.311c-3.43 3.438-8.086 5.372-12.943 5.372zM607.568 196.443c-4.857 0-9.516-1.931-12.946-5.369l-64.157-64.311c-7.12-7.139-7.12-18.692 0-25.83 24.861-24.92 65.185-24.916 90.050 0 24.836 24.898 24.836 65.243 0 90.141-3.43 3.438-8.090 5.369-12.946 5.369zM429.396 126.768c-5.606 5.621-8.247 13.096-7.918 20.465l7.918-20.465zM421.478 147.233l28.317-28.387c-7.336-0.34-14.789 2.3-20.4 7.921zM594.622 126.764c-5.61-5.621-13.060-8.261-20.4-7.918l20.4 7.918zM574.223 118.846l28.321 28.383c0.329-7.365-2.311-14.844-7.921-20.465z" />
<glyph unicode="&#xe919;" glyph-name="sexy" d="M919.68 418.56l-221.76 192c-26.704 20.65-59.802 31.287-93.536 30.060s-65.971-14.242-91.104-36.78c-25.219 22.867-57.712 36.086-91.731 37.316-34.022 1.23-67.386-9.607-94.189-30.596l-223.040-192c-4.386-3.987-7.164-9.44-7.812-15.334-0.648-5.891 0.878-11.818 4.292-16.666 49.74-67.098 110.044-125.674 178.56-173.44 67.408-50.426 148.525-79.213 232.64-82.56 83.84 2.602 164.931 30.49 232.64 80 68.515 47.766 128.819 106.342 178.56 173.44 2.070 2.486 3.622 5.36 4.566 8.454s1.261 6.346 0.934 9.565c-0.33 3.219-1.296 6.339-2.845 9.181-1.549 2.838-3.648 5.341-6.176 7.36zM357.76 575.36c10.096 7.613 21.597 13.158 33.84 16.314 12.243 3.158 24.992 3.866 37.51 2.080 12.518-1.782 24.56-6.022 35.434-12.474 10.877-6.454 20.368-14.989 27.936-25.12 2.301-2.989 5.258-5.408 8.643-7.072 3.382-1.664 7.104-2.531 10.877-2.531s7.494 0.867 10.877 2.531c3.386 1.664 6.342 4.083 8.643 7.072 7.568 10.131 17.059 18.666 27.936 25.12 10.874 6.451 22.915 10.691 35.434 12.474 12.518 1.786 25.267 1.078 37.51-2.080 12.243-3.155 23.744-8.701 33.84-16.314l172.48-150.72h-121.28c-34.173-0.31-67.642 9.731-96 28.8l-43.2 28.48c-19.91 13.552-43.437 20.797-67.52 20.797s-47.61-7.245-67.52-20.797l-41.92-31.36c-28.358-19.069-61.827-29.11-96-28.8h-120l172.48 153.6zM616.64 400.32c-7.040-3.84-14.080-8-21.12-12.48l-42.88-28.8c-12.051-7.981-26.186-12.237-40.64-12.237s-28.589 4.256-40.64 12.237l-42.88 27.52c-7.040 4.48-14.080 8.64-21.12 12.48 7.040 3.84 14.080 8 21.12 12.48l42.88 28.8c12.051 7.981 26.186 12.237 40.64 12.237s28.589-4.256 40.64-12.237l42.88-28.8c7.040-4.48 14.080-8.64 21.12-12.48v1.28zM512 179.52c-150.4 0-277.44 121.6-340.8 195.2h135.36c34.173 0.31 67.642-9.731 96-28.8l43.2-28.48c19.942-13.469 43.456-20.666 67.52-20.666s47.578 7.197 67.52 20.666l43.2 28.48c28.358 19.069 61.827 29.11 96 28.8h135.36c-65.92-73.6-192.96-195.2-343.36-195.2zM165.44 736c-20.677 0-37.44-16.763-37.44-37.44s16.763-37.44 37.44-37.44c20.677 0 37.44 16.763 37.44 37.44s-16.763 37.44-37.44 37.44zM96 698.56c0 38.351 31.089 69.44 69.44 69.44s69.44-31.089 69.44-69.44c0-38.351-31.089-69.44-69.44-69.44s-69.44 31.089-69.44 69.44z" />
<glyph unicode="&#xe91a;" glyph-name="zoom-out" d="M959.481 833.743l-0.015-203.437c0-22.468-18.205-40.67-40.667-40.67-22.469 0-40.667 18.202-40.667 40.678v105.143l-236.333-236.541c-7.954-7.962-18.377-11.916-28.792-11.916-10.4 0-20.8 3.962-28.747 11.909-15.886 15.87-15.901 41.623-0.023 57.509l236.411 236.64h-105.12c-22.468 0-40.678 18.217-40.678 40.693 0 22.461 18.217 40.678 40.678 40.678h203.271c10.796 0 21.131-4.29 28.767-11.932 7.636-7.627 11.915-17.988 11.915-28.754zM918.806 264.25c-22.477 0-40.675-18.24-40.675-40.696v-105.143l-232.37 230.395c-15.901 15.886-42.742 15.901-58.628 0.015-15.893-15.863-16.442-41.631-0.571-57.509l230.028-230.509h-105.319c-22.469 0-40.701-18.198-40.709-40.675-0.007-22.448 18.172-40.675 40.648-40.675l203.238-0.022c10.803 0 23.333 4.293 30.939 11.915 7.629 7.629 14.102 17.979 14.102 28.76v203.454c-0.007 22.456-18.22 40.689-40.682 40.689zM378.225 350.596l-232.351-232.2v105.165c0 22.471-17.851 40.643-40.312 40.643h0.167c-22.469 0-40.594-18.194-40.594-40.643l0.015-203.425c0-10.796 4.305-21.146 11.931-28.767 7.642-7.636 18.004-11.922 28.793-11.922h203.276c22.468 0 40.678 18.22 40.678 40.682 0 22.484-18.217 40.689-40.678 40.689h-105.089l232.060 232.277c15.901 15.878 15.696 41.669-0.19 57.531s-41.814 15.848-57.707-0.030zM203.345 789.392h105.105c22.469 0 40.671 18.194 40.671 40.656 0 22.476-18.21 40.693-40.671 40.693l-203.261 0.015c-10.796 0-21.127-4.266-28.769-11.893-7.619-7.627-11.908-17.966-11.908-28.777l0.023-203.444c0-22.438 18.21-40.678 40.67-40.678 22.469 0 40.67 18.24 40.67 40.678v105.158l234.484-234.674c7.946-7.954 18.369-11.931 28.785-11.931 10.392 0 20.808 3.961 28.747 11.908 15.893 15.871 15.917 41.645 0.023 57.547l-234.568 234.742z" />
<glyph unicode="&#xe91b;" glyph-name="deposit" d="M512.026 874.643c-235.275 0-426.669-191.393-426.669-426.669 0-235.271 191.393-426.664 426.669-426.664 235.271 0 426.664 191.393 426.664 426.664 0 235.275-191.393 426.669-426.664 426.669zM698.69 412.423h-151.113v-151.113c0-19.628-15.923-35.555-35.551-35.555-19.632 0-35.555 15.927-35.555 35.555v151.113h-151.114c-19.629 0-35.553 15.923-35.553 35.551 0 19.632 15.925 35.555 35.553 35.555h151.114v151.114c0 19.629 15.923 35.553 35.555 35.553 19.628 0 35.551-15.925 35.551-35.553v-151.114h151.113c19.628 0 35.555-15.923 35.555-35.555 0-19.628-15.927-35.551-35.555-35.551z" />
<glyph unicode="&#xe91c;" glyph-name="codepay" d="M118.187 533.333c-18.347 0-32.853 14.507-32.853 32.853v98.56c0 115.627 94.293 209.92 209.92 209.92h98.56c18.347 0 32.853-14.507 32.853-32.853s-14.507-32.853-32.853-32.853h-98.56c-79.787 0-144.213-64.853-144.213-144.213v-98.56c0-18.347-14.933-32.853-32.853-32.853zM905.813 533.333c-17.92 0-32.853 14.507-32.853 32.853v98.56c0 79.787-64.853 144.213-144.213 144.213h-98.56c-18.347 0-32.853 14.933-32.853 32.853s14.507 32.853 32.853 32.853h98.56c115.627 0 209.92-94.293 209.92-209.92v-98.56c0-18.347-14.507-32.853-32.853-32.853zM728.747 21.333h-59.307c-17.92 0-32.853 14.507-32.853 32.853 0 17.92 14.507 32.853 32.853 32.853h59.307c79.787 0 144.213 64.853 144.213 144.213v58.88c0 17.92 14.507 32.853 32.853 32.853 17.92 0 32.853-14.507 32.853-32.853v-58.88c0-115.627-94.293-209.92-209.92-209.92zM393.813 21.333h-98.56c-115.627 0-209.92 94.293-209.92 209.92v98.56c0 18.347 14.507 32.853 32.853 32.853s32.853-14.507 32.853-32.853v-98.56c0-79.787 64.853-144.213 144.213-144.213h98.56c17.92 0 32.853-14.507 32.853-32.853s-14.507-32.853-32.853-32.853zM787.627 480.853h-551.253c-18.347 0-32.853-14.933-32.853-32.853s14.507-32.853 32.853-32.853h551.253c18.347 0 32.853 14.933 32.853 32.853s-14.507 32.853-32.853 32.853zM294.4 365.227v-14.080c0-70.827 57.173-128 128-128h179.2c70.827 0 128 57.173 128 128v14.080c0 5.12-3.84 8.96-8.96 8.96h-417.28c-5.12 0-8.96-3.84-8.96-8.96zM294.4 530.773v14.080c0 70.827 57.173 128 128 128h179.2c70.827 0 128-57.173 128-128v-14.080c0-5.12-3.84-8.96-8.96-8.96h-417.28c-5.12 0-8.96 3.84-8.96 8.96z" />
<glyph unicode="&#xe91d;" glyph-name="codepay2" d="M24.381 596.27c0-18.598 15.422-34.020 34.020-34.020s34.020 15.422 34.020 34.020v113.4c0 93.895 76.205 170.1 170.1 170.1h113.4c18.598 0 34.020 15.422 34.020 34.020s-15.422 34.020-34.020 34.020h-113.4c-131.090 0-238.139-106.596-238.139-238.139v-113.4zM931.582 596.27c0-18.598 15.419-34.020 34.016-34.020s34.021 15.422 34.021 34.020v113.4c0 131.544-107.047 238.139-238.139 238.139h-113.401c-18.598 0-34.021-15.422-34.021-34.020s15.423-34.020 34.021-34.020h113.401c93.896 0 170.101-76.205 170.101-170.1v-113.4zM761.481-27.429h-68.042c-18.598 0-34.016 15.423-34.016 34.021s15.419 34.016 34.016 34.016h68.042c93.896 0 170.101 76.205 170.101 170.101v68.042c0 18.598 15.419 34.016 34.016 34.016s34.021-15.419 34.021-34.016v-68.042c0-131.545-107.047-238.139-238.139-238.139zM262.52-27.429h113.4c18.598 0 34.020 15.423 34.020 34.021s-15.422 34.016-34.020 34.016h-113.4c-93.895 0-170.1 76.205-170.1 170.101v113.401c0 18.598-15.422 34.021-34.020 34.021s-34.020-15.423-34.020-34.021v-113.401c0-131.545 107.049-238.139 238.139-238.139zM375.92 766.37h-90.72c-51.711 0-79.38-27.216-79.38-79.38v-90.72c0-52.164 27.669-79.38 79.38-79.38h90.72c51.711 0 79.38 27.216 79.38 79.38v90.72c0 52.164-27.669 79.38-79.38 79.38zM648.080 766.37h90.722c51.707 0 79.38-27.216 79.38-79.38v-90.72c0-52.164-27.672-79.38-79.38-79.38h-90.722c-51.712 0-79.38 27.216-79.38 79.38v90.72c0 52.164 27.668 79.38 79.38 79.38zM375.92 403.49h-90.72c-51.711 0-79.38-27.214-79.38-79.38v-90.722c0-52.161 27.669-79.38 79.38-79.38h90.72c51.711 0 79.38 27.219 79.38 79.38v90.722c0 52.165-27.669 79.38-79.38 79.38zM648.080 403.49h90.722c51.707 0 79.38-27.214 79.38-79.38v-90.722c0-52.161-27.672-79.38-79.38-79.38h-90.722c-51.712 0-79.38 27.219-79.38 79.38v90.722c0 52.165 27.668 79.38 79.38 79.38z" />
<glyph unicode="&#xe91e;" glyph-name="crypto" d="M572.646 432.814l-113.746-0.026v-142.828h113.746c39.378 0 71.414 32.041 71.414 71.424 0 18.97-7.455 36.879-21.002 50.422-13.542 13.548-31.447 21.007-50.412 21.007zM613.263 549.441c0 15.032-5.914 29.224-16.655 39.966s-24.934 16.658-39.962 16.656h-97.746v-113.224h98.668c30.792 0.498 55.695 25.688 55.695 56.602zM512 792c-189.682 0-344-154.318-344-344s154.318-344.003 344-344.003c189.681 0 344.003 154.322 344.003 344.003s-154.322 344-344.003 344zM572.662 229.96h-30.664v-57.958h-59.998v57.958h-132.078v60.001h48.996v316.077h-48.996v60h132.078v57.962h59.998v-57.962h14.664c31.053 0.002 60.314-12.154 82.391-34.23 22.072-22.076 34.227-51.338 34.227-82.394 0-29.748-11.213-56.916-29.609-77.54 7.782-5.040 15.114-10.916 21.832-17.64 24.878-24.881 38.579-57.854 38.574-92.849 0-72.468-58.952-131.425-131.415-131.425zM874.040 810.040c-96.707 96.702-225.28 149.96-362.040 149.96s-265.334-53.258-362.040-149.96c-96.702-96.706-149.96-225.28-149.96-362.040s53.258-265.334 149.96-362.040c96.706-96.701 225.28-149.96 362.040-149.96s265.334 53.258 362.040 149.96c96.701 96.707 149.96 225.28 149.96 362.040s-53.258 265.334-149.96 362.040zM512 44.001c-222.766 0-404 181.233-404 403.999s181.234 404 404 404c222.766 0 403.999-181.234 403.999-404s-181.233-403.999-403.999-403.999z" />
<glyph unicode="&#xe91f;" glyph-name="history" d="M512 874.667c-84.386 0-166.878-25.024-237.043-71.906s-124.852-113.519-157.145-191.482c-32.294-77.962-40.743-163.752-24.28-246.517s57.099-158.788 116.77-218.462c59.67-59.669 135.695-100.305 218.46-116.766 82.765-16.465 168.555-8.017 246.515 24.277 77.965 32.294 144.602 86.98 191.484 157.146s71.906 152.657 71.906 237.043c0 113.159-44.954 221.684-124.966 301.699-80.017 80.015-188.54 124.968-301.7 124.968zM646.933 313.067c-3.708-3.721-8.111-6.673-12.962-8.691-4.851-2.014-10.052-3.051-15.305-3.051s-10.453 1.037-15.305 3.051c-4.851 2.018-9.254 4.971-12.962 8.691l-106.667 106.667c-3.716 3.708-6.669 8.115-8.683 12.966-2.010 4.851-3.051 10.048-3.051 15.3v213.333c0 10.609 4.215 20.783 11.716 28.284s17.677 11.716 28.284 11.716c10.607 0 20.783-4.214 28.284-11.716s11.716-17.676 11.716-28.284v-196.8l94.933-94.933c7.441-7.526 11.61-17.685 11.61-28.267s-4.169-20.74-11.61-28.267z" />
<glyph unicode="&#xe920;" glyph-name="p2pc" d="M59.495 854.312v-811.851h513.82v165.274h-25.782v-51.382h-462.29v553.154h462.29v-50.973h25.782v195.778h-513.82zM85.243 828.53h462.29v-93.195h-462.29v93.195zM85.243 130.583h462.29v-62.339h-462.29v62.339zM260.722 794.841h111.343v-25.782h-111.343v25.782zM711.737 671.334v-103.003h-88.462c-41.483 56.001-107.725 92.558-182.568 92.558-125.451 0-227.453-102.218-227.453-227.954 0-125.759 102.001-227.977 227.453-227.977 74.843 0 141.073 36.557 182.568 92.626h88.462v-103.003h64.603l188.2 238.353-188.211 238.399h-64.592zM737.508 645.484h26.374l167.822-212.56-167.822-212.582h-26.374v103.003h-97.462c17.886 32.529 28.092 69.871 28.092 109.579 0 39.686-10.194 77.084-28.092 109.625h97.462v102.935zM642.355 432.924c0-111.832-90.135-202.126-201.66-202.126-111.479 0-201.659 90.317-201.659 202.138s90.191 202.172 201.659 202.172c111.525 0 201.66-90.351 201.66-202.183zM427.839 538.761c-29.4-5.268-55.762-32.085-53.567-63.226 0.603-22.153 16.771-41.893 37.626-48.583 20.207-7.179 43.429-7.487 60.985-21.003 9-8.181 10.012-22.403 7.111-33.53-7.942-17.306-29.389-21.982-46.694-21.049-14.097 0.842-27.739 5.291-40.175 11.799-4.028-7.623-8.010-15.223-11.969-22.869 14.507-7.6 30.345-12.8 46.694-14.404v-37.16h25.782v38.093c26.078 3.402 52.258 23.359 53.567 51.2 1.468 23.825-11.446 48.708-34.076 58.027-17.601 8.715-37.751 9.489-55.876 16.646-11.378 4.449-19.024 16.486-17.124 28.752 2.116 21.333 24.997 33.781 44.794 33.428 15.406 0 30.162-6.929 41.415-17.249 5.757 6.337 11.514 12.754 17.249 19.137-13.733 12.447-31.278 21.402-49.948 23.108v37.262l-25.793 0.011v-38.389z" />
<glyph unicode="&#xe921;" glyph-name="profile" horiz-adv-x="1052" d="M412.553 858.499c74.559 17.601 148.867-27.785 166.639-101.342 17.783-73.603-27.773-147.195-102.332-164.796-74.49-17.613-148.935 27.739-166.707 101.331-17.783 73.546 27.91 147.194 102.4 164.807zM406.5 883.564c-87.939-20.73-142.507-108.555-121.424-195.789 21.106-87.234 109.864-141.221 197.894-120.48 87.939 20.73 142.404 108.567 121.355 195.8-21.094 87.222-109.864 141.198-197.825 120.468zM727.945 464.475c103.754 0 187.597-83.786 187.597-187.494 0-103.765-83.843-187.494-187.597-187.494-103.777 0-187.62 83.74-187.62 187.494 0 103.708 83.843 187.563 187.62 187.494zM312.098 519.236c-81.351 0-159.050-70.224-175.866-155.261l-23.461-118.568c-10.843-55.046-5.928-98.133 19.672-130.435 25.6-32.347 68.983-52.031 130.776-67.607 101.114-25.543 206.063-32.006 308.69-13.21 7.179 1.115 12.095 7.93 10.729 15.098-1.308 7.179-8.351 11.856-15.462 10.263-91.136-16.714-184.491-12.516-275.558 7.748v186.379c0.046 7.225-5.871 13.096-13.107 12.971-7.111-0.057-12.846-5.871-12.8-12.971v-180.326c-57.116 14.871-93.628 33.234-113.004 57.663-19.843 24.997-24.781 58.186-14.643 109.386l23.427 118.568c14.393 72.476 84.719 134.576 150.608 134.576h265.136c22.892 0 46.285-7.339 67.732-19.957-76.561-32.427-130.492-108.328-130.492-196.562 0-117.692 95.71-213.333 213.47-213.333 117.692 0 213.379 95.653 213.379 213.333 0 117.612-95.687 213.333-213.379 213.333-17.84 0-35.157-2.492-51.689-6.633-0.466 0.41-0.933 0.819-1.468 1.183-28.865 21.265-62.817 34.361-97.553 34.361h-265.136zM664.593 284.16h126.692c7.646 0 13.403-5.746 13.403-13.403v-78.689c0-7.646-5.757-13.46-13.403-13.46h-126.692c-7.646 0-13.449 5.814-13.449 13.46v78.689c0 7.646 5.803 13.403 13.449 13.403zM727.945 388.506c22.869 0 40.539-17.067 40.539-37.626v-40.903h-81.135v40.903c0 20.56 17.67 37.626 40.596 37.626zM727.945 414.345c-36.159 0-66.378-28.137-66.378-63.454v-41.199c-20.093-1.604-36.204-18.489-36.204-38.935v-78.689c0-21.515 17.715-39.231 39.219-39.231h126.692c21.47 0 39.174 17.727 39.174 39.231v78.689c0 20.446-16.065 37.33-36.159 38.935v41.199c0.011 35.317-30.254 63.454-66.344 63.454zM727.774 262.758c-7.179-0.057-12.868-5.928-12.754-13.084v-36.557c0-7.122 5.757-12.925 12.937-12.925 7.111 0 12.914 5.803 12.914 12.925v36.557c0.102 7.282-5.814 13.198-13.096 13.084z" />
<glyph unicode="&#xe922;" glyph-name="wallets" d="M102.4 627.789c0 82.301 66.627 146.21 152.426 146.21h487.266c85.795 0 152.424-63.91 152.424-146.21v-15.605c-0.831 0.016-1.663 0.025-2.499 0.025h-206.152c-93.295 0-171.164-74.696-171.164-164.189 0-89.489 77.869-164.184 171.164-164.184h206.152c0.836 0 1.667 0.008 2.499 0.025v-15.606c0-82.297-66.626-146.211-152.424-146.211h-487.266c-85.799 0-152.426 63.91-152.426 146.211v359.534zM692.724 531.050c-46.637 0-86.569-38.769-86.569-84.050s39.932-84.050 86.569-84.050h195.67c18.178 0 33.206 14.59 33.206 32.24v103.621c0 17.646-15.028 32.24-33.206 32.24h-195.67zM728.302 447.001c0-19.079-15.929-34.542-35.578-34.542s-35.574 15.462-35.574 34.542c0 19.075 15.929 34.542 35.574 34.542 19.649 0 35.578-15.466 35.578-34.542z" />
<glyph unicode="&#xe923;" glyph-name="withdraw" d="M523.783 851.104c-227.16 0-411.956-184.796-411.956-411.956 0-227.155 184.796-411.952 411.956-411.952s411.952 184.797 411.952 411.952c0 227.16-184.793 411.956-411.952 411.956zM704.011 404.819h-360.459c-18.95 0-34.329 15.381-34.329 34.329 0 18.951 15.38 34.332 34.329 34.332h360.459c18.951 0 34.329-15.381 34.329-34.332 0-18.948-15.378-34.329-34.329-34.329z" />
<glyph unicode="&#xe924;" glyph-name="bank" horiz-adv-x="1052" d="M528.23 900.243l-442.664-203.446v-101.864h885.396v101.864l-442.732 203.446zM528.23 872.003l416.95-191.738v-59.425h-833.843v59.425l416.893 191.738zM186.613 569.822h25.782v-441.606h-25.782v441.606zM274.006 569.822h25.782v-441.606h-25.782v441.606zM756.673 569.822h25.782v-441.606h-25.782v441.606zM844.146 569.822h25.782v-441.606h-25.782v441.606zM85.567-3.447h885.396v106.473h-885.396v-106.473zM111.338 77.244h833.843v-54.932h-833.843v54.932zM431.826 448.228c0-52.929 43.315-96.063 96.404-96.063 53.111 0 96.529 43.133 96.529 96.063 0 52.907-43.418 96.108-96.529 96.108-53.089 0-96.404-43.201-96.404-96.108zM598.875 448.216c0-38.935-31.403-70.36-70.645-70.36-39.151 0-70.622 31.425-70.622 70.36s31.471 70.337 70.622 70.337c39.242 0 70.645-31.403 70.645-70.337zM375.472 153.691v12.937c0 58.311 28.672 112.492 76.026 142.040 47.286 29.559 106.2 29.559 153.532 0 47.286-29.559 75.981-83.729 75.981-142.040v-12.937h-305.539zM404.452 179.462h247.58c-4.028 44.442-25.065 84.981-60.689 107.27-39.287 24.462-86.938 24.462-126.157 0-35.624-22.289-56.639-62.817-60.735-107.27zM452.272 734.435c0-41.779 34.179-75.98 75.958-75.98 41.847 0 76.049 34.201 76.049 75.98 0 41.836-34.202 76.026-76.049 76.026-41.779 0-75.958-34.202-75.958-76.026zM578.497 734.446c0-27.864-22.357-50.13-50.267-50.13-27.841 0-50.176 22.266-50.176 50.13 0 27.91 22.335 50.244 50.176 50.244 27.91 0 50.267-22.335 50.267-50.244z" />
<glyph unicode="&#xe925;" glyph-name="bonus" d="M523.794 15.448c238.892 0 432.552 193.66 432.552 432.552s-193.66 432.552-432.552 432.552c-238.892 0-432.552-193.66-432.552-432.552s193.66-432.552 432.552-432.552zM610.95 711.969l-63.996-63.995c-9.64-9.639-19.83-22.31-23.16-34.586-3.33 12.276-8.792 24.947-18.428 34.586l-63.996 63.995c-29.452 29.453-77.206 29.453-106.657 0-26.567-26.567-28.099-69.095-6.738-98.579l-30.435-0.001c-41.652 0-75.418-33.766-75.418-75.418 0-20.554 8.223-39.191 21.559-52.792h560.229c13.337 13.602 21.56 32.238 21.56 52.792 0 41.652-33.767 75.418-75.419 75.418l-24.632 0.001c21.363 29.484 18.757 72.013-7.811 98.58-29.452 29.453-77.203 29.453-106.655 0zM251.715 437.343l-0.094 3.655h249.545v-279.047h-22.623c-70.282 0-105.423 0-133.142 12.030-36.959 16.038-66.323 46.8-81.632 85.518-11.481 29.036-11.481 65.864-11.481 139.479 0 16.137-0.312 28.238-0.573 38.365zM569.044 161.951c70.282 0 105.423 0 133.141 12.030 36.959 16.038 66.323 46.8 81.634 85.518 11.479 29.039 11.479 65.854 11.479 139.479 0 18.125 0 31.154-0.169 42.019h-248.712v-279.047h22.627z" />
<glyph unicode="&#xe926;" glyph-name="card" d="M81.92 632.32c0 45.243 36.677 81.92 81.92 81.92h655.36c45.244 0 81.92-36.677 81.92-81.92v-409.6c0-45.244-36.676-81.92-81.92-81.92h-655.36c-45.243 0-81.92 36.676-81.92 81.92v409.6zM799.994 537.344c-13.75 13.746-36.033 13.745-49.779 0l-24.744-24.742c-5.177-5.177-13.861-2.114-14.946 5.128-1.073 7.176-4.375 14.084-9.9 19.614-13.75 13.746-36.033 13.745-49.779 0l-24.744-24.742c-5.177-5.177-13.861-2.114-14.946 5.128-1.073 7.176-4.37 14.084-9.904 19.614-13.746 13.746-36.033 13.745-49.779 0l-24.74-24.742c-5.177-5.177-13.865-2.114-14.946 5.128-1.077 7.176-4.375 14.084-9.904 19.614-13.746 13.746-36.033 13.745-49.779 0l-24.74-24.742c-5.177-5.177-13.865-2.114-14.946 5.128-1.077 7.176-4.374 14.084-9.902 19.614-13.748 13.746-36.033 13.745-49.78 0l-24.426-24.427c-5.097-5.095-13.825-2.241-14.905 4.882-1.083 7.152-4.377 14.033-9.888 19.544-13.748 13.746-36.033 13.745-49.779 0l-53.13-53.132c-13.77-13.767-14.502-36.327-0.843-50.209 6.9-7.008 15.995-10.514 25.094-10.514h0.223c5.117 0.033 7.789-6.009 4.173-9.626l-45.872-45.875c-13.77-13.771-14.502-36.327-0.843-50.209 6.899-7.008 15.995-10.514 25.094-10.514 9.006 0 18.016 3.437 24.889 10.31l24.743 24.74c5.177 5.177 13.863 2.114 14.948-5.128 1.075-7.176 4.373-14.086 9.903-19.612 6.874-6.877 15.88-10.31 24.888-10.31s18.017 3.437 24.889 10.31l24.743 24.74c5.177 5.177 13.863 2.114 14.948-5.128 1.075-7.176 4.373-14.086 9.903-19.612 6.874-6.877 15.881-10.31 24.889-10.31 9.005 0 18.016 3.437 24.889 10.31l24.744 24.74c5.173 5.177 13.861 2.114 14.946-5.128 1.073-7.176 4.375-14.086 9.904-19.612 6.873-6.877 15.88-10.31 24.887-10.31s18.014 3.437 24.887 10.31l24.744 24.74c5.177 5.177 13.861 2.114 14.946-5.128 1.077-7.176 4.375-14.086 9.904-19.612 6.873-6.877 15.88-10.31 24.887-10.31s18.018 3.437 24.891 10.31l24.744 24.744c5.177 5.177 13.865 2.109 14.95-5.132 1.073-7.176 4.37-14.086 9.9-19.612 6.873-6.877 15.88-10.31 24.891-10.31 9.003 0 18.014 3.437 24.887 10.31l53.768 53.764c13.746 13.746 13.746 36.033 0 49.779-13.14 13.14-34.062 13.685-47.895 1.704l64.745 64.745c13.738 13.746 13.738 36.033-0.004 49.777zM368.020 449.81l-9.395 19.067c-2.436 4.944-9.483 4.944-11.919 0l-9.395-19.067c-0.967-1.962-2.837-3.322-5.002-3.637l-21.028-3.060c-5.446-0.795-7.621-7.483-3.684-11.33l15.229-14.868c1.563-1.524 2.277-3.719 1.908-5.874l-3.593-20.984c-0.931-5.427 4.769-9.564 9.642-7l18.788 9.896c1.937 1.020 4.253 1.020 6.19 0l18.788-9.896c4.872-2.564 10.571 1.573 9.642 7l-3.593 20.984c-0.369 2.154 0.344 4.35 1.908 5.874l15.229 14.868c3.937 3.846 1.762 10.535-3.684 11.33l-21.028 3.060c-2.165 0.315-4.035 1.675-5.002 3.637zM496.423 468.877l9.396-19.067c0.967-1.962 2.839-3.322 5.001-3.637l21.029-3.060c5.448-0.795 7.623-7.483 3.686-11.33l-15.229-14.868c-1.565-1.524-2.277-3.719-1.909-5.874l3.592-20.984c0.93-5.427-4.772-9.564-9.642-7l-18.788 9.896c-1.937 1.020-4.252 1.020-6.189 0l-18.788-9.896c-4.874-2.564-10.572 1.573-9.642 7l3.592 20.984c0.369 2.154-0.344 4.35-1.909 5.874l-15.229 14.868c-3.936 3.846-1.761 10.535 3.686 11.33l21.029 3.060c2.163 0.315 4.035 1.675 5.001 3.637l9.396 19.067c2.437 4.944 9.482 4.944 11.915 0zM645.62 449.81l-9.396 19.067c-2.433 4.944-9.482 4.944-11.919 0l-9.392-19.067c-0.967-1.962-2.839-3.322-5.005-3.637l-21.025-3.060c-5.448-0.795-7.623-7.483-3.686-11.33l15.229-14.868c1.565-1.524 2.277-3.719 1.909-5.874l-3.592-20.984c-0.93-5.427 4.768-9.564 9.642-7l18.788 9.896c1.937 1.020 4.252 1.020 6.189 0l18.788-9.896c4.87-2.564 10.572 1.573 9.642 7l-3.592 20.984c-0.369 2.154 0.344 4.35 1.909 5.874l15.229 14.868c3.936 3.846 1.761 10.535-3.686 11.33l-21.029 3.060c-2.163 0.315-4.035 1.675-5.001 3.637z" />
<glyph unicode="&#xe927;" glyph-name="history-bets" d="M512 704c-141.158 0-256-114.842-256-256s114.842-256 256-256c141.158 0 256 114.842 256 256s-114.842 256-256 256zM507.153 479.33h9.694c38.502 0 69.828-31.326 69.828-69.828 0-31.565-21.056-58.287-49.856-66.901v-49.399h-49.638v49.399c-28.8 8.614-49.856 35.337-49.856 66.901h49.643c0-11.132 9.058-20.19 20.186-20.19h9.694c11.132 0 20.19 9.058 20.19 20.19s-9.058 20.19-20.19 20.19h-9.694c-38.502 0-69.828 31.322-69.828 69.828 0 31.561 21.056 58.287 49.856 66.902v49.397h49.638v-49.397c28.8-8.614 49.856-35.337 49.856-66.902h-49.638c0 11.132-9.058 20.19-20.19 20.19h-9.694c-11.127 0-20.186-9.058-20.186-20.19s9.054-20.19 20.186-20.19zM538.581 121.417v-100.083c95.356 5.82 184.73 42.837 256.269 106.15l-70.886 70.886c-50.842-43.243-115.004-71.27-185.382-76.954zM838.583 421.419c-5.683-70.379-33.711-134.541-76.954-185.382l70.891-70.886c63.309 71.539 100.331 160.913 106.146 256.269h-100.083zM485.346 774.582v100.085c-95.353-5.818-184.728-42.839-256.268-106.15l70.886-70.886c50.843 43.244 115.003 71.268 185.382 76.951zM723.972 697.631l70.886 70.886c-71.535 63.311-160.913 100.332-256.265 106.15v-100.085c70.379-5.683 134.537-33.708 185.378-76.951zM262.369 660.003l-70.886 70.886c-63.311-71.538-100.332-160.913-106.15-256.265h100.087c5.683 70.377 33.706 134.537 76.949 185.379zM185.42 421.406h-100.087c5.818-95.351 42.839-184.725 106.148-256.265l70.888 70.886c-43.244 50.842-71.266 114.999-76.949 185.378zM299.997 198.396l-70.888-70.886c71.539-63.309 160.915-100.331 256.266-106.15v100.087c-70.377 5.683-134.537 33.707-185.379 76.949zM838.554 474.624h100.087c-5.82 95.352-42.842 184.727-106.15 256.265l-70.891-70.886c43.247-50.842 71.27-115.001 76.954-185.379z" />
<glyph unicode="&#xe928;" glyph-name="history-transaction" d="M640 522.667c-135.296 0-245.333-110.080-245.333-245.333s110.037-245.333 245.333-245.333c135.296 0 245.333 110.080 245.333 245.333s-110.037 245.333-245.333 245.333zM723.413 245.333h-83.413c-17.664 0-32 14.336-32 32v86.827c0 17.664 14.336 32 32 32s32-14.336 32-32v-54.827h51.413c17.664 0 32-14.336 32-32s-14.336-32-32-32zM682.667 864h-426.667c-64.853 0-117.333-52.48-117.333-117.333v-554.667c0-64.853 52.48-117.333 117.333-117.333h151.040c-47.787 54.187-76.373 125.013-76.373 202.667 0 170.667 138.667 309.333 309.333 309.333 58.88 0 113.493-16.213 160-45.227v205.227c0 64.853-52.48 117.333-117.333 117.333zM341.333 416h-42.667c-17.493 0-32 14.507-32 32s14.507 32 32 32h42.667c17.493 0 32-14.507 32-32s-14.507-32-32-32zM469.333 544h-170.667c-17.493 0-32 14.507-32 32s14.507 32 32 32h170.667c17.493 0 32-14.507 32-32s-14.507-32-32-32zM640 672h-341.333c-17.493 0-32 14.507-32 32s14.507 32 32 32h341.333c17.493 0 32-14.507 32-32s-14.507-32-32-32z" />
<glyph unicode="&#xe929;" glyph-name="logout" d="M370.362 183.113h-98.346c-8.341 0.034-16.329 3.563-22.215 9.813s-9.191 14.716-9.191 23.535v463.21c0.033 8.799 3.352 17.228 9.235 23.45s13.852 9.733 22.171 9.768h98.346c14.933 0 29.254 6.275 39.814 17.443s16.492 26.317 16.492 42.112c0 15.795-5.932 30.943-16.492 42.112s-24.88 17.443-39.814 17.443h-98.346c-18.939-0.017-37.69-3.983-55.18-11.669s-33.376-18.943-46.751-33.126c-13.375-14.184-23.976-31.017-31.197-49.536s-10.921-38.362-10.888-58.395v-463.209c0.132-40.333 15.355-78.967 42.342-107.465 26.987-28.493 63.542-44.531 101.673-44.599h98.346c7.394 0 14.716 1.54 21.547 4.535 6.831 2.991 13.038 7.377 18.266 12.907s9.376 12.096 12.206 19.324c2.83 7.223 4.286 14.967 4.286 22.788s-1.456 15.565-4.286 22.793c-2.83 7.223-6.977 13.79-12.206 19.319s-11.435 9.92-18.266 12.911c-6.831 2.995-14.153 4.535-21.547 4.535zM876.318 495.381l-159.023 151.265c-12.762 10.18-29.039 15.394-45.611 14.61s-32.23-7.507-43.891-18.842c-11.657-11.335-18.458-26.455-19.063-42.373s5.035-31.474 15.799-43.593l43.337-42.238h-302.94c-17.573 0-34.426-6.699-46.852-18.628s-19.407-28.109-19.407-44.979c0-16.87 6.981-33.050 19.407-44.979s29.279-18.633 46.852-18.633h304.791l-46.379-44.523c-12.070-11.998-18.748-28.066-18.598-44.745s7.121-32.631 19.405-44.425c12.284-11.797 28.902-18.483 46.276-18.628s34.112 6.263 46.605 17.852l158.229 151.39c6.46 5.862 11.627 12.915 15.189 20.736 3.567 7.821 5.453 16.247 5.551 24.785 0.098 8.533-1.591 17.003-4.975 24.896-3.379 7.893-8.38 15.053-14.703 21.052z" />
<glyph unicode="&#xe92a;" glyph-name="livechat" d="M256.065 305.694v-56.875h255.935c141.129 0 255.936 114.807 255.936 255.936 0 141.131-114.807 255.936-255.936 255.936s-255.935-114.805-255.935-255.936c0-57.54 19.328-113.139 54.653-158.097-6.859-23.966-28.743-40.964-54.653-40.964zM597.312 533.193h56.875v-56.875h-56.875v56.875zM483.563 533.193h56.875v-56.875h-56.875v56.875zM369.814 533.193h56.874v-56.875h-56.874v56.875zM912.017 646.942h-59.567c-50.667 120.297-162.223 207.718-290.658 224.415-127.27 16.967-252.324-32.020-334.136-130.633-24.050-28.993-43.128-60.513-57.097-93.782h-58.577c-47.043 0-85.312-38.269-85.312-85.312v-113.75c0-47.040 38.269-85.312 85.312-85.312h116.784l-12.219 37.299c-35.575 108.638-15.551 219.638 54.903 304.533 69.233 83.452 174.957 124.746 282.955 110.583 114.219-14.878 213.359-95.653 252.642-205.836l0.239-0.639c6.332-16.829 10.773-34.13 13.329-51.932 8.525-53.182 3.665-107.083-14.025-155.876l-0.124-0.341c-43.908-124.668-162.010-208.414-293.914-208.414-47.347 0-85.867-38.268-85.867-85.308 0-47.044 38.268-85.312 85.312-85.312s85.312 38.268 85.312 85.312v38.349c113.549 26.991 208.922 107.482 254.763 217.587h59.942c47.044 0 85.312 38.268 85.312 85.312v113.748c0 47.043-38.268 85.31-85.312 85.31z" />
<glyph unicode="&#xe92b;" glyph-name="withdraw2" d="M512 874.667c-235.271 0-426.667-191.395-426.667-426.667 0-235.273 191.395-426.667 426.667-426.667 235.273 0 426.667 191.394 426.667 426.667 0 235.271-191.394 426.667-426.667 426.667zM698.667 412.446h-373.333c-19.627 0-35.555 15.927-35.555 35.554s15.929 35.554 35.555 35.554h373.333c19.627 0 35.554-15.927 35.554-35.554s-15.927-35.554-35.554-35.554z" />
<glyph unicode="&#xe92c;" glyph-name="rolling" d="M644.002 557.333c-121.31 0-220.002-98.692-220.002-220.002 0-121.306 98.692-219.998 220.002-219.998 121.306 0 219.998 98.692 219.998 219.998 0 121.31-98.692 220.002-219.998 220.002zM644.002 357.333c33.084 0 59.998-26.914 59.998-59.998 0-26.044-16.772-48.034-40-56.32v-43.682h-40v43.682c-23.228 8.286-40 30.276-40 56.32h40c0-11.038 8.964-20.002 20.002-20.002 11.034 0 19.998 8.964 19.998 20.002 0 11.034-8.964 19.998-19.998 19.998-33.088 0-60.002 26.914-60.002 60.002 0 26.039 16.772 48.030 40 56.316v43.682h40v-43.682c23.228-8.286 40-30.276 40-56.316h-40c0 11.034-8.964 19.998-19.998 19.998-11.038 0-20.002-8.964-20.002-19.998 0-11.038 8.964-20.002 20.002-20.002zM404 557.333c123.36 0 220 52.715 220 120s-96.64 122.667-220 122.667c-123.36 0-222.667-55.381-222.667-122.667s99.307-120 222.667-120zM181.333 349.922v-32.589c0-67.285 99.307-120 222.667-120 6.997 0 13.777 0.644 20.666 0.981-15.341 24.124-26.782 50.889-33.52 79.501-89.207 2.462-166.664 29.875-209.813 72.107zM384.961 318.353c-0.459 6.289-0.961 12.574-0.961 18.982 0 20.847 2.732 41.028 7.391 60.467-89.318 2.423-166.869 29.85-210.057 72.119v-32.589c0-63.714 89.683-113.788 203.628-118.98zM404 437.333c0.021 0 0.039 0.004 0.061 0.004 13.19 31.526 32.367 59.942 56.175 83.755-18.061-2.283-36.727-3.759-56.237-3.759-94.956 0-177.432 28.317-222.667 72.588v-32.588c0-67.286 99.307-120 222.667-120z" />
<glyph unicode="&#xe92d;" glyph-name="deposit2" d="M512 874.667c-235.273 0-426.667-191.393-426.667-426.667s191.393-426.667 426.667-426.667c235.273 0 426.667 191.394 426.667 426.667s-191.394 426.667-426.667 426.667zM698.667 412.446h-151.113v-151.113c0-19.631-15.923-35.554-35.554-35.554s-35.554 15.923-35.554 35.554v151.113h-151.113c-19.629 0-35.553 15.923-35.553 35.554s15.924 35.554 35.553 35.554h151.113v151.113c0 19.629 15.923 35.553 35.554 35.553s35.554-15.924 35.554-35.553v-151.113h151.113c19.631 0 35.554-15.923 35.554-35.554s-15.923-35.554-35.554-35.554z" />
<glyph unicode="&#xe92e;" glyph-name="wallet" d="M845.999 579.872c30.899-1.846 58.223-24.721 60.518-56.672 0.154-2.095 0.149-4.352 0.149-6.447v-134.554c0-2.095 0.004-4.352-0.149-6.447-2.295-31.953-29.619-54.827-60.518-56.674-2.082-0.124-4.352-0.124-6.707-0.119h-92.868c-76.062 0-141.146 56.644-141.146 130.517s65.084 130.518 141.146 130.518h92.868c2.355 0.001 4.625 0.002 6.707-0.122zM738.244 414.673c19.58 0 35.456 15.582 35.456 34.803s-15.876 34.803-35.456 34.803c-19.584 0-35.46-15.582-35.46-34.803s15.876-34.803 35.46-34.803zM827.093 718.449c-2.735 3.205-5.649 6.317-8.747 9.338-28.087 27.369-63.706 39.515-107.712 45.28-42.756 5.601-97.391 5.601-166.366 5.6h-79.305c-68.977 0-123.612 0.001-166.37-5.6-44.005-5.765-79.622-17.911-107.71-45.28s-40.554-62.073-46.47-104.95c-5.748-41.662-5.748-94.896-5.748-162.105v-4.13c0-67.209-0.001-120.444 5.748-162.103 5.916-42.88 18.382-77.585 46.47-104.951 28.088-27.371 63.705-39.514 107.71-45.278 42.758-5.602 97.392-5.602 166.37-5.602h79.3c68.979 0 123.614 0 166.37 5.602 44.006 5.764 79.625 17.907 107.712 45.278 7.676 7.479 14.195 15.518 19.738 24.145 16.905 26.308 19.678 40.644 19.678 71.689-1.203-0.038-5.837-0.026-10.577-0.013-2.411 0.009-4.847 0.013-6.874 0.013h-96.909c-99.75 0-176.879 61.717-179.025 165.453-2.103 101.567 92.51 166.615 177.762 166.615h94.003c0.393 0 1.412 0.003 2.803 0.006 5.517 0.013 16.875 0.040 18.321-0.006 0 43.177-1.847 67.798-30.174 101.001zM253.536 645.042c0 15.148 12.603 27.429 28.15 27.429h150.135c15.543 0 28.147-12.28 28.147-27.429s-12.604-27.428-28.147-27.428h-150.135c-15.546 0-28.15 12.28-28.15 27.428z" />
<glyph unicode="&#xe92f;" glyph-name="tick" d="M863.055 728.677c-7.675 7.682-16.794 13.777-26.829 17.934s-20.792 6.298-31.651 6.298c-10.864 0-21.62-2.14-31.656-6.298s-19.149-10.252-26.829-17.934l-246.416-246.392-82.123 82.122c-7.679 7.682-16.796 13.777-26.831 17.934s-20.79 6.298-31.652 6.298c-10.862 0-21.618-2.14-31.653-6.298s-19.152-10.252-26.831-17.934c-7.679-7.679-13.77-16.795-17.926-26.827s-6.295-20.786-6.295-31.646c0-10.86 2.139-21.611 6.295-31.646 4.156-10.031 10.247-19.149 17.926-26.824l140.618-140.618c7.679-7.685 16.796-13.777 26.83-17.934 10.035-4.161 20.792-6.298 31.656-6.298 10.859 0 21.616 2.136 31.651 6.298 10.035 4.157 19.153 10.249 26.829 17.934l304.887 304.885c7.68 7.679 13.773 16.795 17.929 26.827s6.293 20.786 6.293 31.645c0 10.86-2.136 21.613-6.293 31.645s-10.249 19.149-17.929 26.827z" />
<glyph unicode="&#xe930;" glyph-name="promotion2" horiz-adv-x="1052" d="M482.165 764.548c6.781 4.757 8.422 14.112 3.666 20.894-14.236 20.296-46.39 53.966-99.521 48.031-33.829-3.778-58.778 7.021-74.615 17.641-6.881 4.614-16.196 2.776-20.813-4.104-4.614-6.88-2.776-16.199 4.105-20.813 20.287-13.604 52.227-27.277 94.655-22.539v0c36.904 4.122 59.853-18.653 71.632-35.445 4.756-6.782 14.111-8.423 20.892-3.666zM316.297 684.326c7.148-4.184 16.336-1.778 20.52 5.372 16.609 28.385 47.918 42.053 77.827 48.274 14.68 3.054 28.291 4.148 38.252 4.47 4.961 0.16 8.971 0.128 11.696 0.058 1.362-0.035 2.401-0.079 3.072-0.113l0.731-0.040 0.148-0.009 0.006-0.001c8.26-0.589 15.437 5.626 16.028 13.887 0.594 8.263-5.621 15.443-13.884 16.037l-1.078-14.961c1.078 14.961 1.072 14.962 1.067 14.962l-0.014 0.001-0.131 0.009-0.31 0.020-1.064 0.059c-0.902 0.045-2.182 0.099-3.8 0.14-3.234 0.083-7.828 0.118-13.437-0.063-11.182-0.362-26.584-1.587-43.392-5.083-33.067-6.878-74.633-23.223-97.61-62.496-4.184-7.15-1.778-16.338 5.373-20.522zM657.536 783.036c6.824-4.698 16.162-2.977 20.861 3.846 13.605 19.756 32.185 48.689 44.823 76.372 6.295 13.785 11.474 28.025 13.571 41.108 2.031 12.673 1.641 27.325-7.211 38.787l-0.003 0.002c-4.144 5.364-10.035 9.809-18.005 10.351-6.645 0.452-12.334-2.151-15.198-3.483-1.143-0.533-2.193-1.036-3.172-1.505-5.148-2.469-8.326-3.992-13.204-3.992-7.214 0-10.041 1.85-15.064 5.138l-0.091 0.059c-6.605 4.32-15.471 10.093-31.582 10.093s-24.977-5.773-31.579-10.093l-0.091-0.059c-5.023-3.288-7.851-5.137-15.064-5.137-7.211 0-10.035 1.849-15.058 5.137l-0.091 0.059c-6.602 4.32-15.468 10.094-31.579 10.094s-24.98-5.773-31.582-10.094l-0.088-0.060c-5.026-3.288-7.851-5.137-15.061-5.137-4.861 0-8.024 1.544-13.21 4.073-0.95 0.463-1.966 0.959-3.075 1.485-2.844 1.35-8.528 4.011-15.189 3.612-8.010-0.48-13.952-4.919-18.13-10.295v-0.001c-8.786-11.308-9.313-25.788-7.433-38.353 1.943-12.965 6.909-27.088 12.988-40.781 12.203-27.496 30.288-56.325 43.713-76.248 4.631-6.869 13.955-8.685 20.824-4.055s8.684 13.953 4.053 20.822c-13.124 19.475-30.043 46.58-41.17 71.65-5.589 12.591-9.367 23.909-10.738 33.055-0.913 6.102-0.592 10.062 0.097 12.557 5.123-2.597 14.851-7.522 27.27-7.522 16.111 0 24.977 5.774 31.579 10.094l0.088 0.059c5.026 3.288 7.851 5.137 15.064 5.137 7.211 0 10.038-1.849 15.061-5.137l0.091-0.059c6.599-4.32 15.465-10.094 31.576-10.094s24.98 5.773 31.582 10.094l0.091 0.059c5.023 3.288 7.851 5.137 15.061 5.137 7.214 0 10.041-1.849 15.064-5.137l0.091-0.060c6.605-4.32 15.471-10.093 31.582-10.093 12.342 0 22.044 4.834 27.15 7.378 0.006 0.003 0.014 0.006 0.020 0.010 0.691-2.522 1.001-6.552 0-12.8-1.485-9.261-5.441-20.7-11.238-33.395-11.54-25.276-28.939-52.5-42.24-71.816-4.699-6.823-2.978-16.163 3.846-20.862zM760.047 683.076c5.51 6.186 4.964 15.667-1.223 21.178-19.009 16.936-39.677 33.659-62.083 50.090-6.682 4.899-16.068 3.455-20.966-3.225s-3.456-16.067 3.226-20.967c21.672-15.893 41.597-32.022 59.867-48.298 6.187-5.511 15.667-4.964 21.18 1.222zM254.811 302.45c8.188 1.26 13.806 8.917 12.548 17.104-17.844 116.124 36.345 269.198 218.7 405.75 6.63 4.966 7.982 14.367 3.015 20.998s-14.367 7.982-20.998 3.016c-188.591-141.22-250.341-304.344-230.369-434.318 1.258-8.189 8.916-13.807 17.104-12.55zM867.502 192.512c6.75-4.804 16.117-3.223 20.918 3.527 79.030 111.098 74.607 290.938-78.498 457.944-5.598 6.107-15.087 6.519-21.194 0.922s-6.519-15.087-0.919-21.194c145.96-159.212 145.081-323.405 76.166-420.281-4.804-6.753-3.223-16.117 3.527-20.918zM644.207 201.287l-0.009-1.064 0.705 0.31c-0.23 0.256-0.466 0.503-0.697 0.754zM479.656 111.511c0-8.286 6.716-15.002 14.999-15.002h169.64c8.283 0 14.999 6.716 14.999 15.002 0 8.283-6.716 14.999-14.999 14.999h-169.64c-8.283 0-14.999-6.716-14.999-14.999zM35.724-1.26c0-24.041 19.49-43.529 43.53-43.529h68.854c24.042 0 43.528 19.49 43.528 43.529v197.811c0 8.286-6.716 15.002-15 15.002s-15-6.716-15-15.002v-197.811c0-7.472-6.058-13.531-13.528-13.531h-68.854c-7.472 0-13.53 6.059-13.53 13.531v349.329c0 7.467 6.056 13.525 13.53 13.525h68.854c7.473 0 13.528-6.056 13.528-13.525v-81.397c0-8.286 6.716-15.002 15-15.002s15 6.716 15 15.002v81.397c0 24.041-19.489 43.526-43.528 43.526h-68.854c-24.038 0-43.53-19.484-43.53-43.526v-349.329zM584.832 279.438c8.283 0 14.999 6.716 14.999 14.999v339.82c0 8.286-6.716 15.002-14.999 15.002-8.286 0-15.002-6.716-15.002-15.002v-339.82c0-8.283 6.716-14.999 15.002-14.999z" />
<glyph unicode="&#xe931;" glyph-name="scan" horiz-adv-x="975" d="M885.672 619.822c-19.9 0-39.804 14.96-39.804 39.897v99.738c0 34.909-29.857 59.845-59.709 59.845h-99.513c-19.905 0-39.804 14.96-39.804 39.897 0 24.932 14.926 39.897 39.804 39.897h99.513c74.635 0 139.318-59.845 139.318-139.639v-99.738c0-19.948-19.9-39.897-39.804-39.897zM686.646 101.171h99.513c34.831 0 59.709 29.925 59.709 59.845v99.738c0 19.948 14.931 39.897 39.809 39.897s39.804-14.96 39.804-39.897v-99.738c0-74.806-59.709-139.635-139.323-139.635h-99.513c-19.9 0-39.804 14.96-39.804 39.892 0 24.937 19.905 39.897 39.804 39.897zM288.591 819.301h-99.514c-34.83 0-59.708-29.92-59.708-59.845v-99.737c0-19.948-14.927-39.897-39.806-39.897s-39.805 19.948-39.805 39.897v99.737c0 74.806 59.708 139.639 139.319 139.639h99.514c19.903 0 39.805-14.965 39.805-39.897 0-24.937-19.902-39.897-39.805-39.897zM89.564 300.651c19.903 0 39.806-14.96 39.806-39.892v-99.742c0-34.909 29.854-59.845 59.708-59.845h99.514c19.903 0 39.805-14.96 39.805-39.897 0-24.932-19.903-39.892-39.805-39.892h-99.514c-74.635 0-139.32 64.829-139.32 139.635v99.742c0 19.944 19.903 39.892 39.805 39.892zM686.646 759.457c54.735 0 99.518-44.88 99.518-99.738v-89.766h-597.085v89.766c0 54.857 44.781 99.738 99.514 99.738h398.053zM935.434 420.342h-149.27v-159.583c0-54.857-44.783-99.738-99.518-99.738h-398.054c-54.733 0-99.514 44.88-99.514 99.738v169.56h-149.271c-19.903 0-39.806 14.96-39.806 39.897 0 24.932 14.927 39.893 39.806 39.893h895.626c19.9 0 39.804-14.96 39.804-39.893 0-24.937-19.905-49.874-39.804-49.874zM935.434 420.406h-149.27c-113.532-0.010-121.905 0-176.64 0h-292.572c-54.733 0-66.117 0-128.299 0h-148.847c-30.635 0-39.806 15.501-39.806 49.874 0 24.931 14.927 39.891 39.806 39.891h895.628c19.9 0 39.804-14.96 39.804-39.891 0-24.937-19.905-49.874-39.804-49.874z" />
<glyph unicode="&#xe932;" glyph-name="right-check" horiz-adv-x="975" d="M828.952 618.714v-255.999c-0.073-67.877-27.068-132.944-75.059-180.941-47.996-47.991-113.069-74.986-180.941-75.064h-256c-11.316 0-22.168-4.496-30.17-12.498-8.001-7.997-12.497-18.851-12.497-30.169 0-11.313 4.495-22.167 12.497-30.169s18.854-12.498 30.17-12.498h256c90.497 0.107 177.254 36.098 241.245 100.089s99.986 150.752 100.094 241.25v255.999c0 11.316-4.496 22.169-12.498 30.17s-18.856 12.497-30.174 12.497c-11.313 0-22.167-4.495-30.169-12.497s-12.498-18.854-12.498-30.17zM572.952 149.377c56.564 0.068 110.787 22.567 150.777 62.557 39.995 39.995 62.493 94.218 62.562 150.777v298.67c-0.068 56.559-22.567 110.783-62.562 150.776-39.99 39.994-94.213 62.491-150.777 62.558h-298.666c-56.559-0.067-110.783-22.565-150.777-62.558s-62.491-94.217-62.558-150.776v-298.67c0.067-56.559 22.564-110.782 62.558-150.777 39.994-39.99 94.217-62.488 150.777-62.557h298.666zM308.847 558.378l54.541-75.418 180.585 167.083c8.309 7.686 19.329 11.756 30.642 11.314s21.982-5.358 29.672-13.669c7.685-8.31 11.752-19.334 11.313-30.645-0.444-11.311-5.359-21.983-13.668-29.669l-215.913-199.746c-4.431-4.096-9.682-7.207-15.404-9.123-5.723-1.921-11.787-2.604-17.792-2.004s-11.816 2.462-17.047 5.476c-5.231 3.009-9.765 7.095-13.3 11.986l-82.748 114.419c-6.298 9.179-8.758 20.457-6.857 31.425s8.014 20.759 17.034 27.283c9.019 6.524 20.231 9.265 31.244 7.638s20.953-7.494 27.699-16.348z" />
<glyph unicode="&#xe933;" glyph-name="phone-check" horiz-adv-x="975" d="M703.883-41.477c69.369 0 126.498 57.129 126.498 122.417 0 261.149 0 457.014 0 730.407 0 69.369-57.129 122.415-126.498 122.415h-432.53c-69.369 0-126.496-57.127-126.496-122.415v-730.407c0-69.369 57.127-122.417 126.496-122.417h432.53zM487.619 40.136c-20.402 0-40.805 16.321-40.805 40.804s20.402 40.804 40.805 40.804c24.484 0 40.804-16.321 40.804-40.804 0-20.402-16.321-40.804-40.804-40.804zM226.467 815.428c0 24.483 20.402 40.805 44.886 40.805h432.53c24.483 0 44.885-20.402 44.885-40.805v-607.995h-522.301v607.995zM491.013 719.417c-105.639 0-191.275-85.636-191.275-191.273s85.636-191.272 191.275-191.272c105.638 0 191.273 85.636 191.273 191.272s-85.636 191.273-191.273 191.273zM579.964 603.818c12.454-12.449 12.454-32.634 0-45.083l-106.26-106.263c-5.977-5.978-14.087-9.338-22.542-9.338s-16.564 3.36-22.542 9.338l-39.849 39.847c-12.448 12.452-12.448 32.634 0 45.086 12.449 12.448 32.634 12.448 45.083 0l17.307-17.307 83.721 83.72c12.449 12.448 32.631 12.448 45.080 0z" />
<glyph unicode="&#xe934;" glyph-name="copy" d="M697.574 171.54c-4.255-46.239-42.793-82.688-90.117-82.688h-330.751c-50.162 0-90.956 40.791-90.956 90.957v396.897c0 47.33 36.452 85.866 82.687 90.119v-354.721c0-77.501 63.047-140.564 140.568-140.564h288.569zM830.71 618.051v-305.946c0-50.161-40.791-90.952-90.957-90.952h-330.747c-50.161 0-90.956 40.791-90.956 90.952v396.901c0 50.162 40.795 90.956 90.956 90.956h239.796v-157.106c0-13.696 11.105-24.806 24.806-24.806h157.102zM698.409 378.255c0 13.696-11.105 24.806-24.801 24.806h-198.452c-13.696 0-24.806-11.11-24.806-24.806s11.11-24.806 24.806-24.806h198.452c13.696 0 24.801 11.11 24.801 24.806zM698.409 510.557c0 13.697-11.105 24.806-24.801 24.806h-198.452c-13.696 0-24.806-11.11-24.806-24.806s11.11-24.806 24.806-24.806h198.452c13.696 0 24.801 11.11 24.801 24.806zM698.409 785.426v-117.763h117.765l-117.765 117.763z" />
<glyph unicode="&#xe935;" glyph-name="input-money" horiz-adv-x="975" d="M906.669 800.428c0 57.867-46.894 104.763-104.765 104.763h-438.095c-57.867 0-104.762-46.895-104.762-104.763v-514.288c0-57.866 46.895-104.76 104.762-104.76h438.095c57.871 0 104.765 46.894 104.765 104.76v514.288zM725.714 352.807h-285.713c-15.772 0-28.572 12.8-28.572 28.574 0 15.77 12.8 28.57 28.572 28.57h285.713c15.774 0 28.574-12.8 28.574-28.57 0-15.774-12.8-28.574-28.574-28.574zM725.714 467.095h-285.713c-15.772 0-28.572 12.799-28.572 28.571s12.8 28.572 28.572 28.572h285.713c15.774 0 28.574-12.8 28.574-28.572s-12.8-28.571-28.574-28.571zM725.714 581.38h-285.713c-15.772 0-28.572 12.8-28.572 28.572s12.8 28.572 28.572 28.572h285.713c15.774 0 28.574-12.8 28.574-28.572s-12.8-28.572-28.574-28.572zM363.81 124.236c-89.295 0-161.905 72.65-161.905 161.904v514.289c0 3.276 0.762 6.324 0.952 9.524h-29.524c-57.791 0-104.762-46.971-104.762-104.762v-609.524c0-57.793 46.971-104.765 104.762-104.765h457.143c57.793 0 104.765 46.972 104.765 104.765v28.57h-371.432z" />
<glyph unicode="&#xe936;" glyph-name="crypto-wallet" horiz-adv-x="975" d="M541.067 788.086c0 10.654-4.189 20.712-11.805 28.326-7.612 7.613-17.671 11.806-28.321 11.805h-69.277v-80.247h69.93c21.821 0.353 39.473 18.206 39.473 40.117zM431.664 705.409l80.619 0.017c13.439 0.001 26.132-5.286 35.728-14.887 9.601-9.601 14.887-22.292 14.887-35.737 0-27.912-22.708-50.622-50.615-50.622h-80.619v101.228zM225.476 716.19c0 134.437 109.373 243.81 243.81 243.81s243.809-109.372 243.809-243.81c0-134.437-109.373-243.81-243.809-243.81s-243.81 109.372-243.81 243.81zM490.55 561.656h21.733c51.356 0 93.14 41.785 93.135 93.145 0.005 24.803-9.704 48.173-27.336 65.807-4.764 4.766-9.957 8.93-15.477 12.503 13.039 14.617 20.987 33.872 20.987 54.956 0 22.011-8.611 42.751-24.259 58.397s-36.386 24.262-58.392 24.261h-10.391v41.080h-42.526v-41.080h-93.61v-42.525h34.726v-224.018h-34.726v-42.525h93.61v-41.080h42.526v41.080zM975.238 382.791c-0.961 23.572-20.509 42.667-44.446 42.667h-156.067c-24.4 0-44.485-20.085-44.485-44.485v-103.995c0-24.547 20.085-44.485 44.485-44.485h156.067c23.937 0 43.486 18.959 44.446 42.662v107.637zM816.825 383.654c30.501 0 55.345-24.698 55.345-55.198s-24.844-55.345-55.345-55.345c-30.496 0-55.194 24.844-55.194 55.345s24.698 55.198 55.194 55.198zM0 97.841c0-62.186 50.882-113.069 113.22-113.069h707.292c62.337 0 113.215 50.883 113.215 113.069v105.189c-0.517 0-1.004-0.039-1.487-0.073-0.483-0.039-0.965-0.078-1.487-0.078h-156.067c-40.614 0-73.943 33.329-73.943 74.094v103.995c0 40.619 33.329 73.943 73.943 73.943h156.067c1.044 0 1.936 0 2.974-0.146v107.564c0 60.85-49.84 110.84-110.836 110.84h-62.488c-20.085-143.868-143.57-254.707-292.943-254.707s-272.858 110.839-292.943 254.707h-63.677c-60.999 0-110.839-49.99-110.839-110.84v-464.486z" />
<glyph unicode="&#xe937;" glyph-name="network" d="M775.301 424.95c54.758 38.077 87.818 100.365 87.818 168.329 0 113.11-92.022 205.134-205.133 205.134-67.548 0-129.843-32.94-167.987-87.382 136.637-41.156 244.51-149.29 285.301-286.081zM427.742 724.756c47.222 82.628 134.664 133.614 230.219 133.614 146.166 0 265.083-118.916 265.083-265.082 0-96.108-51.154-183.422-134.231-230.557 2.703-19.343 4.132-39.086 4.132-59.162 0-18.104-1.142-35.953-3.348-53.473 137.042 53.422 234.404 186.813 234.404 342.532 0 202.624-164.844 367.472-367.468 367.472-155.72 0-289.111-97.366-342.533-234.408 17.52 2.206 35.366 3.352 53.474 3.352 20.458 0 40.572-1.484 60.268-4.288zM59.948 723.743c0 61.406 49.956 111.362 111.362 111.362h2.992l-21.782-21.784 42.39-42.39 94.148 94.146-94.15 94.148-42.388-42.39 21.782-21.784h-2.992c-94.462 0.002-171.31-76.848-171.31-171.308v-68.538h59.948v68.538zM964.111 172.467c0-61.409-49.956-111.365-111.365-111.365h-2.99l21.78 21.786-42.388 42.388-94.147-94.141 94.147-94.147 42.388 42.388-21.78 21.78h2.99c94.464 0 171.31 76.851 171.31 171.31v68.541h-59.945v-68.541zM327.375 333.558h105.982c13.312 0 24.144 10.834 24.144 24.146s-10.832 24.146-24.144 24.146h-105.982v-48.292zM433.357 273.603h-105.982v-48.292h105.982c13.312 0 24.144 10.834 24.144 24.146s-10.832 24.146-24.144 24.146zM734.945 303.565c0 202.625-164.849 367.473-367.473 367.473s-367.472-164.848-367.472-367.473c0-202.624 164.848-367.473 367.472-367.473s367.473 164.849 367.473 367.473zM439.3 165.586v-48.133h-59.948v47.903h-51.962v-47.908h-59.95v47.908h-49.96v59.945h49.962v156.529h-49.962v59.945h49.962v47.905h59.948v-47.905h51.962v47.905h59.948v-48.136c43.61-3.057 78.163-39.485 78.163-83.86 0-20.598-7.455-39.48-19.795-54.118 12.34-14.638 19.795-33.521 19.795-54.118 0-44.375-34.553-80.804-78.163-83.86z" />
<glyph unicode="&#xe938;" glyph-name="icon-gift" d="M512 0c-247.424 0-448 200.576-448 448s200.576 448 448 448c247.424 0 448-200.576 448-448s-200.576-448-448-448zM528.435 657.508c-9.982-9.982-20.54-23.108-23.987-35.821-3.447 12.713-9.105 25.839-19.089 35.821l-66.278 66.281c-30.505 30.504-79.964 30.504-110.468 0-27.516-27.516-29.101-71.563-6.976-102.101h-31.524c-43.14 0-78.112-34.972-78.112-78.112 0-21.289 8.518-40.589 22.327-54.677h580.241c13.809 14.089 22.327 33.389 22.327 54.677 0 43.14-34.972 78.112-78.112 78.112h-25.513c22.125 30.539 19.426 74.586-8.090 102.101-30.502 30.504-79.959 30.504-110.466 0l-66.281-66.281zM222.558 443.14l0.096-3.785c0.271-10.49 0.593-23.023 0.593-39.735 0-76.243 0-114.387 11.891-144.461 15.855-40.102 46.268-71.964 84.546-88.574 28.708-12.459 65.105-12.459 137.897-12.459h23.435v289.013h-258.458zM551.315 154.127c72.791 0 109.188 0 137.897 12.459 38.278 16.61 68.691 48.471 84.546 88.574 11.893 30.076 11.893 68.205 11.893 144.463 0 7.198 0 13.621-0.009 19.441l-0.023 7.684-0.028 5.762-0.036 4.337c-0.023 2.182-0.049 4.275-0.081 6.293h-257.594v-289.013h23.435z" />
</font>
</defs>
</svg>
